Статистика раздачи
Размер:  1,49 GB   |    Зарегистрирован:  3 месяца 12 дней   |    Скачан:  0 раз
Сидов:  17  [  0 KB/s  ]   Личеров:  1  [  0 KB/s  ]  
 
   
 
 

lopster ®

Пол:
Не указан
Стаж:
3 месяца 12 дней
Сообщений:
612

Теснота
Жанр: драма
Год выпуска: 2017
Продолжительность: 01:57:50
Субтитры: русские (форсированные, хардсаб)
Режиссер: Кантемир Балагов
В ролях: Дарья Жовнер, Ольга Драгунова, Артем Цыпин, Вениамин Кац, Назир Жуков, Егор Шевяков
Описание:
1998 год, Нальчик. Илана - девочка-подросток из хорошей семьи, которая все делает наоборот. Перечит матери. Спорит с отцом. Чинит машины в автомастерской, не вылезая из спецодежды. Встречается с парнем, который не нравится ее родителям. Пацанка и красавица, она идет своим путем и жаждет свободы, но когда в доме происходит страшная трагедия, именно Илана оказывается единственной, кто способен спасти семью. Однако какой ценой?

Автор рипа: stalkerok
Сэмпл
Качество видео: WEB-DLRip-AVC [Tesnota.2017.O.1080p.WEB-DL.Rustorrents]
Формат видео: MKV
Видео: 1616 Кбит/сек, 842x622 (4:3), 25 кадр/сек, AVC
Аудио: русский, 192 Кбит/сек, 48 КГц, 2.0, AC3
Навигация по главам: есть

x264/MediaInfo

x264 [info]: frame I:853 Avg QP:14.82 size: 50123
x264 [info]: frame P:43658 Avg QP:17.01 size: 16557
x264 [info]: frame B:132242 Avg QP:19.56 size: 5016
General
Unique ID : 250362641786938646730854756840034061363 (0xBC5A1743BCB2272FAF82956AD078CC33)
Complete name : M:\!Rips2017\Tesnota\Tesnota.2017.WEB-DLRip-AVC.RUS.stalkerok.new-team.mkv
Format : Matroska
Format version : Version 4 / Version 2
File size : 1.49 GiB
Duration : 1 h 57 min
Overall bit rate : 1 811 kb/s
Movie name : Теснота (2017) (Rip by stalkerok)
Encoded date : UTC 2017-09-19 07:02:26
Writing application : mkvmerge v8.6.1 ('Flying') 64bit
Writing library : libebml v1.3.3 + libmatroska v1.4.4
Video
ID : 1
Format : AVC
Format/Info : Advanced Video Codec
Format profile : High@L4.1
Format settings, CABAC : Yes
Format settings, ReFrames : 14 frames
Codec ID : V_MPEG4/ISO/AVC
Duration : 1 h 57 min
Bit rate : 1 617 kb/s
Width : 842 pixels
Height : 622 pixels
Display aspect ratio : 4:3
Frame rate mode : Constant
Frame rate : 25.000 FPS
Color space : YUV
Chroma subsampling : 4:2:0
Bit depth : 8 bits
Scan type : Progressive
Bits/(Pixel*Frame) : 0.123
Stream size : 1.33 GiB (89%)
Title : Теснота (2017) (Rip by stalkerok)
Writing library : x264 core 150 r2833kMod df79067
Encoding settings : cabac=1 / ref=14 / deblock=1:-3:-2 / analyse=0x3:0x133 / me=umh / subme=10 / psy=1 / fade_compensate=0.00 / psy_rd=1.00:0.00 / mixed_ref=1 / me_range=32 / chroma_me=1 / trellis=2 / 8x8dct=1 / cqm=0 / deadzone=21,11 / fast_pskip=0 / chroma_qp_offset=-2 / threads=12 / lookahead_threads=3 / sliced_threads=0 / nr=0 / decimate=1 / interlaced=0 / bluray_compat=0 / constrained_intra=0 / bframes=14 / b_pyramid=2 / b_adapt=2 / b_bias=0 / direct=3 / weightb=1 / open_gop=0 / weightp=2 / keyint=250 / keyint_min=25 / scenecut=40 / intra_refresh=0 / rc_lookahead=60 / rc=crf / mbtree=0 / crf=19.1000 / qcomp=0.65 / qpmin=0 / qpmax=69 / qpstep=4 / vbv_maxrate=50000 / vbv_bufsize=62500 / crf_max=0.0 / nal_hrd=none / filler=0 / ip_ratio=1.40 / pb_ratio=1.20 / aq=3:0.80
Default : Yes
Forced : No
Audio
ID : 2
Format : AC-3
Format/Info : Audio Coding 3
Mode extension : CM (complete main)
Format settings, Endianness : Big
Codec ID : A_AC3
Duration : 1 h 57 min
Bit rate mode : Constant
Bit rate : 192 kb/s
Channel(s) : 2 channels
Channel positions : Front: L R
Sampling rate : 48.0 kHz
Frame rate : 31.250 FPS (1536 spf)
Compression mode : Lossy
Stream size : 162 MiB (11%)
Language : Russian
Default : Yes
Forced : No
Menu
00:00:00.000 : en:Глава 1
00:06:30.200 : en:Глава 2
00:11:41.760 : en:Глава 3
00:18:52.159 : en:Глава 4
00:24:57.879 : en:Глава 5
00:31:05.879 : en:Глава 6
00:38:13.838 : en:Глава 7
00:46:20.397 : en:Глава 8
00:56:37.797 : en:Глава 9
01:04:11.717 : en:Глава 10
01:12:02.797 : en:Глава 11
01:18:13.236 : en:Глава 12
01:23:56.595 : en:Глава 13
01:29:24.914 : en:Глава 14
01:37:29.714 : en:Глава 15
01:44:16.474 : en:Глава 16

Скриншоты

[cybertorrent.ru].t380.torrent 
Торрент: Зарегистрирован [ 2018-02-15 15:48 ] · 58B5063A00A1447573662BE68D9ACE8A73BDF963

Скачать .torrent

Скачать

15 KB

Статус: проверено
Скачан: 0 раз
Размер: 1,49 GB
Профиль [ЛС]
Показать сообщения:    

Текущее время: 27-Май 21:17

Часовой пояс: UTC ± 0



Вы не можете начинать темы
Вы не можете отвечать на сообщения
Вы не можете редактировать свои сообщения
Вы не можете удалять свои сообщения
Вы не можете голосовать в опросах
Вы не можете прикреплять файлы к сообщениям
Вы можете скачивать файлы