Статистика раздачи
Размер:  282 MB   |    Зарегистрирован:  3 дня   |    Скачан:  0 раз

Полного источника не было: Никогда

 
   
 
 

ник ®

Пол:
Не указан
Стаж:
7 дней
Сообщений:
158

Убийство в Восточном экспрессе / Murder on the Orient Express
Название альбома: Murder on the Orient Express
Жанр: Score
Композитор: Patrick Doyle
Год выпуска диска: 2017
Год выпуска фильма: 2017
Производитель диска: EU
Издатель (лейбл): Sony Classical
Номер по каталогу: 88985466342
Аудиокодек: FLAC
Тип рипа: tracks+.cue
Битрейт аудио: lossless
Продолжительность: 00:56:59
Источник: Спасибо, Filex
Наличие сканов в содержимом раздачи: да

Треклист:

01. Patrick Doyle - The Wailing Wall (1:43)
02. Patrick Doyle - Jaffa to Stamboul (1:27)
03. Patrick Doyle - Arrival (2:02)
04. Patrick Doyle - The Orient Express (1:29)
05. Patrick Doyle - Departure (1:01)
06. Patrick Doyle - Judgement (2:29)
07. Patrick Doyle - Touch Nothing Else (2:54)
08. Patrick Doyle - MacQueen (2:20)
09. Patrick Doyle - Twelve Stab Wounds (2:58)
10. Patrick Doyle - The Armstrong Case (1:22)
11. Patrick Doyle - Mrs. Hubbard (1:34)
12. Patrick Doyle - This Is True (2:52)
13. Patrick Doyle - Keep Everyone Inside (1:24)
14. Patrick Doyle - Confession (1:50)
15. Patrick Doyle - Geography (1:25)
16. Patrick Doyle - One Sharp Knife (2:24)
17. Patrick Doyle - Ma Katherine (1:09)
18. Patrick Doyle - True Identity (2:08)
19. Patrick Doyle - Dr. Arbuthnot (1:54)
20. Patrick Doyle - It Is Time (1:06)
21. Patrick Doyle - Justice (9:30)
22. Patrick Doyle - Poirot (2:40)
23. Michelle Pfeiffer - Never Forget (3:58)
24. Patrick Doyle - Orient Express Suite (3:19)

LOG EAC:

Exact Audio Copy V1.3 from 2. September 2016
EAC extraction logfile from 10. November 2017, 12:35
Patrick Doyle / Murder on the Orient Express
Used drive : PLEXTOR CD-R PX-230A Adapter: 1 ID: 0
Read mode : Secure
Utilize accurate stream : Yes
Defeat audio cache : Yes
Make use of C2 pointers : No
Read offset correction : 738
Overread into Lead-In and Lead-Out : No
Fill up missing offset samples with silence : Yes
Delete leading and trailing silent blocks : No
Null samples used in CRC calculations : Yes
Used interface : Native Win32 interface for Win NT & 2000
Gap handling : Appended to previous track
Used output format : User Defined Encoder
Selected bitrate : 1024 kBit/s
Quality : High
Add ID3 tag : No
Command line compressor : C:\Program Files\Exact Audio Copy\Flac\flac.exe
Additional command line options : -6 -V -T "ARTIST=%artist%" -T "TITLE=%title%" -T "ALBUM=%albumtitle%" -T "DATE=%year%" -T "TRACKNUMBER=%tracknr%" -T "GENRE=%genre%" -T "COMMENT=%comment%" -T "ALBUMARTIST=%albuminterpret%" -T "COMPOSER=%composer%" -T "DISCNUMBER=%cdnumber%" -T "TOTALDISCS=%totalcds%" -T "TOTALTRACKS=%numtracks%" %source% -o %dest%
TOC of the extracted CD
Track | Start | Length | Start sector | End sector
---------------------------------------------------------
1 | 0:00.00 | 1:43.24 | 0 | 7748
2 | 1:43.24 | 1:27.08 | 7749 | 14281
3 | 3:10.32 | 2:02.01 | 14282 | 23432
4 | 5:12.33 | 1:28.61 | 23433 | 30093
5 | 6:41.19 | 1:00.67 | 30094 | 34660
6 | 7:42.11 | 2:29.06 | 34661 | 45841
7 | 10:11.17 | 2:53.46 | 45842 | 58862
8 | 13:04.63 | 2:19.68 | 58863 | 69355
9 | 15:24.56 | 2:58.32 | 69356 | 82737
10 | 18:23.13 | 1:21.67 | 82738 | 88879
11 | 19:45.05 | 1:33.62 | 88880 | 95916
12 | 21:18.67 | 2:51.44 | 95917 | 108785
13 | 24:10.36 | 1:24.16 | 108786 | 115101
14 | 25:34.52 | 1:49.72 | 115102 | 123348
15 | 27:24.49 | 1:24.45 | 123349 | 129693
16 | 28:49.19 | 2:23.71 | 129694 | 140489
17 | 31:13.15 | 1:09.01 | 140490 | 145665
18 | 32:22.16 | 2:07.44 | 145666 | 155234
19 | 34:29.60 | 1:53.66 | 155235 | 163775
20 | 36:23.51 | 1:06.17 | 163776 | 168742
21 | 37:29.68 | 9:29.48 | 168743 | 211465
22 | 46:59.41 | 2:39.59 | 211466 | 223449
23 | 49:39.25 | 3:58.08 | 223450 | 241307
24 | 53:37.33 | 3:19.34 | 241308 | 256266
Track 1
Filename C:\Ripped by Filex\01 - Patrick Doyle - The Wailing Wall.wav
Pre-gap length 0:00:02.00
Peak level 96.4 %
Extraction speed 2.6 X
Track quality 100.0 %
Test CRC CF5E75AF
Copy CRC CF5E75AF
Track not present in AccurateRip database
Copy OK
Track 2
Filename C:\Ripped by Filex\02 - Patrick Doyle - Jaffa to Stamboul.wav
Peak level 96.3 %
Extraction speed 2.6 X
Track quality 100.0 %
Test CRC 9F545F9D
Copy CRC 9F545F9D
Track not present in AccurateRip database
Copy OK
Track 3
Filename C:\Ripped by Filex\03 - Patrick Doyle - Arrival.wav
Peak level 96.2 %
Extraction speed 2.8 X
Track quality 100.0 %
Test CRC 6D6E672A
Copy CRC 6D6E672A
Track not present in AccurateRip database
Copy OK
Track 4
Filename C:\Ripped by Filex\04 - Patrick Doyle - The Orient Express.wav
Peak level 96.4 %
Extraction speed 2.5 X
Track quality 100.0 %
Test CRC E967A50F
Copy CRC E967A50F
Track not present in AccurateRip database
Copy OK
Track 5
Filename C:\Ripped by Filex\05 - Patrick Doyle - Departure.wav
Peak level 96.9 %
Extraction speed 2.3 X
Track quality 100.0 %
Test CRC 77474695
Copy CRC 77474695
Track not present in AccurateRip database
Copy OK
Track 6
Filename C:\Ripped by Filex\06 - Patrick Doyle - Judgement.wav
Peak level 96.3 %
Extraction speed 2.5 X
Track quality 99.9 %
Test CRC 4E6C3054
Copy CRC 4E6C3054
Track not present in AccurateRip database
Copy OK
Track 7
Filename C:\Ripped by Filex\07 - Patrick Doyle - Touch Nothing Else.wav
Peak level 78.8 %
Extraction speed 2.8 X
Track quality 99.9 %
Test CRC B9069324
Copy CRC B9069324
Track not present in AccurateRip database
Copy OK
Track 8
Filename C:\Ripped by Filex\08 - Patrick Doyle - MacQueen.wav
Peak level 96.3 %
Extraction speed 2.7 X
Track quality 100.0 %
Test CRC 61FFFE4C
Copy CRC 61FFFE4C
Track not present in AccurateRip database
Copy OK
Track 9
Filename C:\Ripped by Filex\09 - Patrick Doyle - Twelve Stab Wounds.wav
Peak level 96.3 %
Extraction speed 2.7 X
Track quality 100.0 %
Test CRC 075B58D0
Copy CRC 075B58D0
Track not present in AccurateRip database
Copy OK
Track 10
Filename C:\Ripped by Filex\10 - Patrick Doyle - The Armstrong Case.wav
Peak level 78.4 %
Extraction speed 2.5 X
Track quality 100.0 %
Test CRC 5477E62B
Copy CRC 5477E62B
Track not present in AccurateRip database
Copy OK
Track 11
Filename C:\Ripped by Filex\11 - Patrick Doyle - Mrs. Hubbard.wav
Peak level 77.0 %
Extraction speed 2.4 X
Track quality 100.0 %
Test CRC F2C0E490
Copy CRC F2C0E490
Track not present in AccurateRip database
Copy OK
Track 12
Filename C:\Ripped by Filex\12 - Patrick Doyle - This is True.wav
Peak level 96.4 %
Extraction speed 2.8 X
Track quality 100.0 %
Test CRC A91D2568
Copy CRC A91D2568
Track not present in AccurateRip database
Copy OK
Track 13
Filename C:\Ripped by Filex\13 - Patrick Doyle - Keep Everyone Inside.wav
Peak level 96.4 %
Extraction speed 2.8 X
Track quality 100.0 %
Test CRC A2025E9C
Copy CRC A2025E9C
Track not present in AccurateRip database
Copy OK
Track 14
Filename C:\Ripped by Filex\14 - Patrick Doyle - Confession.wav
Peak level 96.3 %
Extraction speed 2.7 X
Track quality 100.0 %
Test CRC 68C160CC
Copy CRC 68C160CC
Track not present in AccurateRip database
Copy OK
Track 15
Filename C:\Ripped by Filex\15 - Patrick Doyle - Geography.wav
Peak level 96.3 %
Extraction speed 2.3 X
Track quality 100.0 %
Test CRC 6C8D540C
Copy CRC 6C8D540C
Track not present in AccurateRip database
Copy OK
Track 16
Filename C:\Ripped by Filex\16 - Patrick Doyle - One Sharp Knife.wav
Peak level 85.0 %
Extraction speed 2.7 X
Track quality 100.0 %
Test CRC 8A05B769
Copy CRC 8A05B769
Track not present in AccurateRip database
Copy OK
Track 17
Filename C:\Ripped by Filex\17 - Patrick Doyle - Ma Katherine.wav
Peak level 96.3 %
Extraction speed 1.9 X
Track quality 99.8 %
Test CRC C07A40F3
Copy CRC C07A40F3
Track not present in AccurateRip database
Copy OK
Track 18
Filename C:\Ripped by Filex\18 - Patrick Doyle - True Identity.wav
Peak level 96.5 %
Extraction speed 2.6 X
Track quality 100.0 %
Test CRC FA264ABB
Copy CRC FA264ABB
Track not present in AccurateRip database
Copy OK
Track 19
Filename C:\Ripped by Filex\19 - Patrick Doyle - Dr. Arbuthnot.wav
Peak level 96.5 %
Extraction speed 2.3 X
Track quality 99.9 %
Test CRC B3372349
Copy CRC B3372349
Track not present in AccurateRip database
Copy OK
Track 20
Filename C:\Ripped by Filex\20 - Patrick Doyle - It Is Time.wav
Peak level 96.2 %
Extraction speed 2.5 X
Track quality 100.0 %
Test CRC B1DB3E40
Copy CRC B1DB3E40
Track not present in AccurateRip database
Copy OK
Track 21
Filename C:\Ripped by Filex\21 - Patrick Doyle - Justice.wav
Peak level 96.3 %
Extraction speed 3.1 X
Track quality 100.0 %
Test CRC C320B9FD
Copy CRC C320B9FD
Track not present in AccurateRip database
Copy OK
Track 22
Filename C:\Ripped by Filex\22 - Patrick Doyle - Poirot.wav
Peak level 95.5 %
Extraction speed 2.7 X
Track quality 100.0 %
Test CRC 0016402D
Copy CRC 0016402D
Track not present in AccurateRip database
Copy OK
Track 23
Filename C:\Ripped by Filex\23 - Michelle Pfeiffer - Never Forget.wav
Peak level 96.7 %
Extraction speed 2.8 X
Track quality 100.0 %
Test CRC ED7F582E
Copy CRC ED7F582E
Track not present in AccurateRip database
Copy OK
Track 24
Filename C:\Ripped by Filex\24 - Patrick Doyle - Orient Express Suite.wav
Peak level 96.4 %
Extraction speed 2.4 X
Track quality 100.0 %
Test CRC 1AA74379
Copy CRC 1AA74379
Track not present in AccurateRip database
Copy OK
None of the tracks are present in the AccurateRip database
No errors occurred
End of status report
---- CUETools DB Plugin V2.1.6
[CTDB TOCID: QT148881eed8vWqDMg6gLDcVkNk-] disk not present in database
Submit result: QT148881eed8vWqDMg6gLDcVkNk- has been uploaded
==== Log checksum C422C73C88181177DEA10886207E089CC9211E882BA1ABA1FAA2A67DDB0B1930 ====

LOG (.CUE):

REM GENRE Soundtrack
REM DATE 2017
REM DISCID 380D5818
REM COMMENT "ExactAudioCopy v1.3"
PERFORMER "Patrick Doyle"
TITLE "Murder on the Orient Express"
REM COMPOSER "Patrick Doyle"
FILE "01 - The Wailing Wall.wav" WAVE
TRACK 01 AUDIO
TITLE "The Wailing Wall"
PERFORMER "Patrick Doyle"
REM COMPOSER "Patrick Doyle"
INDEX 01 00:00:00
FILE "02 - Jaffa to Stamboul.wav" WAVE
TRACK 02 AUDIO
TITLE "Jaffa to Stamboul"
PERFORMER "Patrick Doyle"
REM COMPOSER "Patrick Doyle"
INDEX 01 00:00:00
FILE "03 - Arrival.wav" WAVE
TRACK 03 AUDIO
TITLE "Arrival"
PERFORMER "Patrick Doyle"
REM COMPOSER "Patrick Doyle"
INDEX 01 00:00:00
FILE "04 - The Orient Express.wav" WAVE
TRACK 04 AUDIO
TITLE "The Orient Express"
PERFORMER "Patrick Doyle"
REM COMPOSER "Patrick Doyle"
INDEX 01 00:00:00
FILE "05 - Departure.wav" WAVE
TRACK 05 AUDIO
TITLE "Departure"
PERFORMER "Patrick Doyle"
REM COMPOSER "Patrick Doyle"
INDEX 01 00:00:00
FILE "06 - Judgement.wav" WAVE
TRACK 06 AUDIO
TITLE "Judgement"
PERFORMER "Patrick Doyle"
REM COMPOSER "Patrick Doyle"
INDEX 01 00:00:00
FILE "07 - Touch Nothing Else.wav" WAVE
TRACK 07 AUDIO
TITLE "Touch Nothing Else"
PERFORMER "Patrick Doyle"
REM COMPOSER "Patrick Doyle"
INDEX 01 00:00:00
FILE "08 - MacQueen.wav" WAVE
TRACK 08 AUDIO
TITLE "MacQueen"
PERFORMER "Patrick Doyle"
REM COMPOSER "Patrick Doyle"
INDEX 01 00:00:00
FILE "09 - Twelve Stab Wounds.wav" WAVE
TRACK 09 AUDIO
TITLE "Twelve Stab Wounds"
PERFORMER "Patrick Doyle"
REM COMPOSER "Patrick Doyle"
INDEX 01 00:00:00
FILE "10 - The Armstrong Case.wav" WAVE
TRACK 10 AUDIO
TITLE "The Armstrong Case"
PERFORMER "Patrick Doyle"
REM COMPOSER "Patrick Doyle"
INDEX 01 00:00:00
FILE "11 - Mrs. Hubbard.wav" WAVE
TRACK 11 AUDIO
TITLE "Mrs. Hubbard"
PERFORMER "Patrick Doyle"
REM COMPOSER "Patrick Doyle"
INDEX 01 00:00:00
FILE "12 - This Is True.wav" WAVE
TRACK 12 AUDIO
TITLE "This Is True"
PERFORMER "Patrick Doyle"
REM COMPOSER "Patrick Doyle"
INDEX 01 00:00:00
FILE "13 - Keep Everyone Inside.wav" WAVE
TRACK 13 AUDIO
TITLE "Keep Everyone Inside"
PERFORMER "Patrick Doyle"
REM COMPOSER "Patrick Doyle"
INDEX 01 00:00:00
FILE "14 - Confession.wav" WAVE
TRACK 14 AUDIO
TITLE "Confession"
PERFORMER "Patrick Doyle"
REM COMPOSER "Patrick Doyle"
INDEX 01 00:00:00
FILE "15 - Geography.wav" WAVE
TRACK 15 AUDIO
TITLE "Geography"
PERFORMER "Patrick Doyle"
REM COMPOSER "Patrick Doyle"
INDEX 01 00:00:00
FILE "16 - One Sharp Knife.wav" WAVE
TRACK 16 AUDIO
TITLE "One Sharp Knife"
PERFORMER "Patrick Doyle"
REM COMPOSER "Patrick Doyle"
INDEX 01 00:00:00
FILE "17 - Ma Katherine.wav" WAVE
TRACK 17 AUDIO
TITLE "Ma Katherine"
PERFORMER "Patrick Doyle"
REM COMPOSER "Patrick Doyle"
INDEX 01 00:00:00
FILE "18 - True Identity.wav" WAVE
TRACK 18 AUDIO
TITLE "True Identity"
PERFORMER "Patrick Doyle"
REM COMPOSER "Patrick Doyle"
INDEX 01 00:00:00
FILE "19 - Dr. Arbuthnot.wav" WAVE
TRACK 19 AUDIO
TITLE "Dr. Arbuthnot"
PERFORMER "Patrick Doyle"
REM COMPOSER "Patrick Doyle"
INDEX 01 00:00:00
FILE "20 - It Is Time.wav" WAVE
TRACK 20 AUDIO
TITLE "It Is Time"
PERFORMER "Patrick Doyle"
REM COMPOSER "Patrick Doyle"
INDEX 01 00:00:00
FILE "21 - Justice.wav" WAVE
TRACK 21 AUDIO
TITLE "Justice"
PERFORMER "Patrick Doyle"
REM COMPOSER "Patrick Doyle"
INDEX 01 00:00:00
FILE "22 - Poirot.wav" WAVE
TRACK 22 AUDIO
TITLE "Poirot"
PERFORMER "Patrick Doyle"
REM COMPOSER "Patrick Doyle"
INDEX 01 00:00:00
FILE "23 - Never Forget.wav" WAVE
TRACK 23 AUDIO
TITLE "Never Forget"
PERFORMER "Michelle Pfeiffer"
INDEX 01 00:00:00
FILE "24 - Orient Express Suite.wav" WAVE
TRACK 24 AUDIO
TITLE "Orient Express Suite"
PERFORMER "Patrick Doyle"
REM COMPOSER "Patrick Doyle"
INDEX 01 00:00:00
- - RG Soundtracks-Внимание! Торрент-файл перезалит 10.11.2017. Полностью заменен релиз. Просьба перекачать торрент-файл заново.
[cybertorrent.ru].t13349.torrent 
Торрент: Зарегистрирован [ 2018-02-20 12:55 ] · D8283FF4FEFBF6595291F172955984F89ADA6CC3

Скачать .torrent

Скачать

13 KB

Статус: проверено
Скачан: 0 раз
Размер: 282 MB
terms.php
Профиль [ЛС]
Показать сообщения:    

Текущее время: 24-Фев 06:08

Часовой пояс: UTC ± 0



Вы не можете начинать темы
Вы не можете отвечать на сообщения
Вы не можете редактировать свои сообщения
Вы не можете удалять свои сообщения
Вы не можете голосовать в опросах
Вы не можете прикреплять файлы к сообщениям
Вы можете скачивать файлы