Статистика раздачи
Размер:  1,24 GB   |    Зарегистрирован:  7 месяцев 26 дней   |    Скачан:  0 раз

Полного источника не было: Никогда

 
   
 
 

Ласточка ®

Пол:
Не указан
Стаж:
8 месяцев
Сообщений:
453

Первоклассница- Жанр: приключения
Год выпуска: 1948
Продолжительность: 01:07:31-Режиссёр: Илья Фрэз-В ролях:
Тамара Макарова, Татьяна Барышева, Наталья Защипина, Кира Головко, Валентина Кибардина, Степан Каюков, Мария Яроцкая, Елена Егорова, Кира Иванова, Елена Таранова, Тамара Вихман, Игорь Ерошкин, Елена Максимова, Георгий Милляр, Ростислав Плятт, Владимир Уральский
Описание:
Замечательный детский фильм о том, как благодаря опытной учительнице и подружкам-одноклассницам, Маруся Орлова превратилась из дошкольницы в первоклассницу, а потом ещё и в дисциплинированную ученицу, отлично закончившую первый класс.-Исходник | Сэмпл | Кинопоиск-Качество видео: DVDRip-AVC, за исходник спасибо OGORODNIKOFFF.
Формат видео: MKV
Видео: x264 (High@L4.1); 700@763x574 25.000 fps; Display aspect ratio: 1.329:1; 2239 Kbps
Аудио: Оригинал: AC-3; 16 bits 48 Khz; 2.0ch 384 Kbps; CBR

MediaInfo

x264 log

avs [info]: 700x574p 12:11 @ 25/1 fps (cfr)
x264 [info]: using SAR=12/11
x264 [info]: using cpu capabilities: MMX2 SSE2Fast SSSE3 SSE4.2
x264 [info]: profile High, level 4.1
x264 [info]: frame I:461 Avg QP:17.62 size: 44053
x264 [info]: frame P:19840 Avg QP:19.58 size: 22652
x264 [info]: frame B:80990 Avg QP:22.26 size: 8207
x264 [info]: consecutive B-frames: 0.9% 0.6% 2.4% 19.7% 22.7% 42.7% 6.8% 2.9% 0.8% 0.5%
x264 [info]: mb I I16..4: 3.7% 84.7% 11.5%
x264 [info]: mb P I16..4: 0.0% 8.1% 0.7% P16..4: 33.0% 41.9% 14.0% 1.2% 0.1% skip: 0.9%
x264 [info]: mb B I16..4: 0.0% 0.6% 0.1% B16..8: 41.2% 23.7% 3.9% direct: 7.7% skip:22.8% L0:42.3% L1:42.6% BI:15.1%
x264 [info]: 8x8 transform intra:89.9% inter:65.0%
x264 [info]: direct mvs spatial:100.0% temporal:0.0%
x264 [info]: coded y,uvDC,uvAC intra: 98.7% 16.1% 0.2% inter: 40.8% 4.9% 0.0%
x264 [info]: i16 v,h,dc,p: 25% 8% 7% 59%
x264 [info]: i8 v,h,dc,ddl,ddr,vr,hd,vl,hu: 13% 8% 4% 9% 14% 15% 12% 14% 11%
x264 [info]: i4 v,h,dc,ddl,ddr,vr,hd,vl,hu: 11% 7% 2% 8% 16% 17% 14% 13% 11%
x264 [info]: i8c dc,h,v,p: 27% 57% 13% 3%
x264 [info]: Weighted P-Frames: Y:56.5% UV:0.3%
x264 [info]: ref P L0: 34.4% 10.8% 13.7% 8.3% 5.9% 5.3% 4.3% 2.7% 2.3% 2.2% 1.9% 1.9% 1.7% 1.7% 1.6% 1.2%
x264 [info]: ref B L0: 76.7% 8.4% 3.9% 2.3% 1.7% 1.6% 1.2% 0.8% 0.7% 0.7% 0.6% 0.6% 0.5% 0.4% 0.2%
x264 [info]: ref B L1: 96.3% 3.7%
x264 [info]: kb/s:2239.87
-General
Unique ID : 231954492747073413384179125576577459734 (0xAE80CF71E58700478FCD71D969362616)
Complete name : Первоклассница.1948.mkv
Format : Matroska
Format version : Version 2
File size : 1.24 GiB
Duration : 1 h 7 min
Overall bit rate : 2 626 kb/s
Encoded date : UTC 2017-10-25 18:40:37
Writing application : mkvmerge v7.8.0 ('River Man') 32bit built on Mar 27 2015 16:18:02
Writing library : libebml v1.3.1 + libmatroska v1.4.2
Video
ID : 1
Format : AVC
Format/Info : Advanced Video Codec
Format profile : High@L4.1
Format settings, CABAC : Yes
Format settings, ReFrames : 16 frames
Codec ID : V_MPEG4/ISO/AVC
Duration : 1 h 7 min
Bit rate : 2 189 kb/s
Width : 700 pixels
Height : 574 pixels
Display aspect ratio : 4:3
Original display aspect rat : 4:3
Frame rate mode : Constant
Frame rate : 25.000 FPS
Color space : YUV
Chroma subsampling : 4:2:0
Bit depth : 8 bits
Scan type : Progressive
Bits/(Pixel*Frame) : 0.218
Stream size : 1.03 GiB (83%)
Title : Первоклассница.1948
Writing library : x264 core 152 r2851kMod ba24899
Encoding settings : cabac=1 / ref=16 / deblock=1:-3:-3 / analyse=0x3:0x133 / me=umh / subme=11 / psy=1 / fade_compensate=0.00 / psy_rd=1.03:0.15 / mixed_ref=1 / me_range=32 / chroma_me=1 / trellis=2 / 8x8dct=1 / cqm=0 / deadzone=21,11 / fast_pskip=1 / chroma_qp_offset=-3 / threads=12 / lookahead_threads=2 / sliced_threads=0 / nr=0 / decimate=0 / interlaced=0 / bluray_compat=0 / constrained_intra=0 / bframes=9 / b_pyramid=2 / b_adapt=2 / b_bias=0 / direct=3 / weightb=1 / open_gop=0 / weightp=2 / keyint=250 / keyint_min=25 / scenecut=40 / intra_refresh=0 / rc_lookahead=60 / rc=crf / mbtree=0 / crf=18.0000 / qcomp=0.70 / qpmin=0 / qpmax=40 / qpstep=4 / vbv_maxrate=50000 / vbv_bufsize=62500 / crf_max=0.0 / nal_hrd=none / filler=0 / ip_ratio=1.45 / pb_ratio=1.30 / aq=1:0.40
Language : Russian
Default : Yes
Forced : No
Color range : Limited
Color primaries : BT.601 PAL
Transfer characteristics : BT.470 System B, BT.470 System G
Matrix coefficients : BT.601
Audio
ID : 2
Format : AC-3
Format/Info : Audio Coding 3
Mode extension : CM (complete main)
Format settings, Endianness : Big
Codec ID : A_AC3
Duration : 1 h 7 min
Bit rate mode : Constant
Bit rate : 384 kb/s
Channel(s) : 2 channels
Channel positions : Front: L R
Sampling rate : 48.0 kHz
Frame rate : 31.250 FPS (1536 spf)
Compression mode : Lossy
Stream size : 185 MiB (15%)
Title : Оригинал: AC-3; 16 bits 48 Khz; 2.0ch 384 Kbps; CBR
Language : Russian
Default : Yes
Forced : No
[cybertorrent.ru].t3506.torrent 
Торрент: Зарегистрирован [ 2018-02-16 23:01 ] · F8FA55F7C3A2C1A6FD24DB6F3542478D6BE902E9

Скачать .torrent

Скачать

13 KB

Статус: проверено
Скачан: 0 раз
Размер: 1,24 GB
Профиль [ЛС]
Показать сообщения:    

Текущее время: 15-Окт 10:40

Часовой пояс: UTC ± 0



Вы не можете начинать темы
Вы не можете отвечать на сообщения
Вы не можете редактировать свои сообщения
Вы не можете удалять свои сообщения
Вы не можете голосовать в опросах
Вы не можете прикреплять файлы к сообщениям
Вы можете скачивать файлы
Torrents24.ru открытый BitTorrent Torrents24.pl открытый BitTorrent CyberTorrent.ru открытый BitTorrent BtList.ru рейтинг BitTorrent трекеров Яндекс.Метрика