Статистика раздачи
Размер:  1,48 GB   |    Зарегистрирован:  3 месяца 11 дней   |    Скачан:  0 раз
Сидов:  13  [  0 KB/s  ]  
 
   
 
 

lopster ®

Пол:
Не указан
Стаж:
3 месяца 11 дней
Сообщений:
612

Яма. Наши дни
«В этой профессии бывших не бывает...»
Жанр: драма
Год выпуска: 2017
Продолжительность: 01:38:43
Режиссер: Виталий Манюков
В ролях: Ольга Вяземская, Дмитрий Ушаков, Ксения Худоба, Станислав Колесниченко, Инна Королёва, Евгений Шмелев, Алексей Дьячков, Екатерина Макарова, Кирилл Крошман-Климов, Юлия Ковалевская, Екатерина Малахит, Игнат Костровский
Описание:
Основное действие фильма происходит в одном из многочисленных московских борделей. Наряду со всевозможными интригами, зритель увидит проявления любви, предательства и ненависти одновременно. Фильм о глубочайшем нравственном кризисе, который царит в нашем обществе. Со дна «Ямы» на поверхность поднимаются проблемы, которые не решаются столетиями. О них попросту не говорят. А мы решили о них прокричать! Яма. Наши дни.

Автор рипа: stalkerok
Сэмпл
Качество видео: WEB-DLRip-AVC [Jama.Nashi.dni.2017.WEB-DLRip.1080p.MediaClub]
Формат видео: MKV
Видео: 1947 Кбит/сек, 1152x648 (16:9), 25 кадр/сек, AVC
Аудио: русский, 192 Кбит/сек, 48 КГц, 2.0, AC3

x264/MediaInfo

x264 [info]: frame I:777 Avg QP:15.22 size: 51257
x264 [info]: frame P:35133 Avg QP:16.95 size: 19944
x264 [info]: frame B:112177 Avg QP:18.89 size: 6254
General
Unique ID : 248816552012199028481476807916879811741 (0xBB30532744DF10259D20D785131B149D)
Complete name : M:\!Rips2017\Jama. Nashi dni\Jama.Nashi.dni.2017.WEB-DLRip-AVC.RUS.stalkerok.new-team.mkv
Format : Matroska
Format version : Version 4 / Version 2
File size : 1.48 GiB
Duration : 1 h 38 min
Overall bit rate : 2 141 kb/s
Movie name : Яма. Наши дни (2017) (Rip by stalkerok)
Encoded date : UTC 2017-10-12 18:43:00
Writing application : mkvmerge v8.6.1 ('Flying') 64bit
Writing library : libebml v1.3.3 + libmatroska v1.4.4
Video
ID : 1
Format : AVC
Format/Info : Advanced Video Codec
Format profile : High@L4.1
Format settings, CABAC : Yes
Format settings, ReFrames : 11 frames
Codec ID : V_MPEG4/ISO/AVC
Duration : 1 h 38 min
Bit rate : 1 948 kb/s
Width : 1 152 pixels
Height : 648 pixels
Display aspect ratio : 16:9
Frame rate mode : Constant
Frame rate : 25.000 FPS
Color space : YUV
Chroma subsampling : 4:2:0
Bit depth : 8 bits
Scan type : Progressive
Bits/(Pixel*Frame) : 0.104
Stream size : 1.34 GiB (91%)
Title : Яма. Наши дни (2017) (Rip by stalkerok)
Writing library : x264 core 150 r2833kMod df79067
Encoding settings : cabac=1 / ref=11 / deblock=1:-3:-2 / analyse=0x3:0x133 / me=umh / subme=11 / psy=1 / fade_compensate=0.00 / psy_rd=1.00:0.00 / mixed_ref=1 / me_range=32 / chroma_me=1 / trellis=2 / 8x8dct=1 / cqm=0 / deadzone=21,11 / fast_pskip=0 / chroma_qp_offset=-2 / threads=12 / lookahead_threads=3 / sliced_threads=0 / nr=0 / decimate=1 / interlaced=0 / bluray_compat=0 / constrained_intra=0 / bframes=14 / b_pyramid=2 / b_adapt=2 / b_bias=0 / direct=3 / weightb=1 / open_gop=0 / weightp=2 / keyint=250 / keyint_min=25 / scenecut=40 / intra_refresh=0 / rc_lookahead=60 / rc=crf / mbtree=0 / crf=19.3000 / qcomp=0.65 / qpmin=0 / qpmax=69 / qpstep=4 / vbv_maxrate=50000 / vbv_bufsize=62500 / crf_max=0.0 / nal_hrd=none / filler=0 / ip_ratio=1.40 / pb_ratio=1.30 / aq=3:0.80 / zones=142662,148086,q=33
Default : Yes
Forced : No
Audio
ID : 2
Format : AC-3
Format/Info : Audio Coding 3
Mode extension : CM (complete main)
Format settings, Endianness : Big
Codec ID : A_AC3
Duration : 1 h 38 min
Bit rate mode : Constant
Bit rate : 192 kb/s
Channel(s) : 2 channels
Channel positions : Front: L R
Sampling rate : 48.0 kHz
Frame rate : 31.250 FPS (1536 spf)
Compression mode : Lossy
Stream size : 136 MiB (9%)
Language : Russian
Default : Yes
Forced : No

Скриншоты

[cybertorrent.ru].t404.torrent 
Торрент: Зарегистрирован [ 2018-02-15 15:48 ] · 0A1D43D195E191941753A6E1F52A5B2930BE40C7

Скачать .torrent

Скачать

15 KB

Статус: проверено
Скачан: 0 раз
Размер: 1,48 GB
Профиль [ЛС]
Показать сообщения:    

Текущее время: 27-Май 05:27

Часовой пояс: UTC ± 0



Вы не можете начинать темы
Вы не можете отвечать на сообщения
Вы не можете редактировать свои сообщения
Вы не можете удалять свои сообщения
Вы не можете голосовать в опросах
Вы не можете прикреплять файлы к сообщениям
Вы можете скачивать файлы