Статистика раздачи
Размер:  747 MB   |    Зарегистрирован:  3 месяца 7 дней   |    Скачан:  0 раз

Полного источника не было: Никогда

 
   
 
 

Жора ®

Пол:
Не указан
Стаж:
3 месяца 10 дней
Сообщений:
434

Грань:Прошлое,Настоящее и Будущее / Fringe: Past-Present-Future Год выпуска: 2011
Страна: США, Канада
Жанр: ужасы, фантастика, триллер
Продолжительность: 4 минуты
Перевод: профессиональный двухголосый закадровый (NewStudio)
Русские субтитры: нет
Субтитры: нет
Режиссёр: Джей Джей Абрамс, Алекс Куртцман, Роберто Орси
В ролях: Анна Торв (Оливия), Джошуа Джексон (Питер), Джон Нобл (доктор Бишоп), Ленс Реддик (агент Бройлс), Кирк Эйсвидо (агент Френсис), Блэр Браун (Нина Шарп)
Описание: Оливия Данэм — молодой агент ФБР вынуждена работать со штатом ученых, чтобы расследовать необъяснимые феномены. Среди работников этого секретного отдела Национальной Безопасности — Доктор Уолтер Бишоп — что-то среднее между Эйнштейном и Франкенштейном, его сын с IQ около 200, так и не закончивший школу, с карточными долгами и Нина Шарп, проработавшая на тайную организацию 16 лет. Особый агент НБ Филип Бройлс возглавляет отдел, призванный расследовать паранормальные явления.
Доп. информация:
Озвучка: Константин Погодаев, Ирина Воронова
Перевод: Эрадан
Редактор: GRAFT
Подготовка видео: Cherry
Работа со звуком: Cherry

Ссылка на предыдущие и альтернативные раздачи: http://cybertorrent.ru/tracker.php?nm=fringe
Качество: WEB-DL 720p
Формат: MKV
Видео кодек: H.264
Аудио кодек: MP3
Видео: AVC, 1280X720, 30.303 fps, 2180 kbps, 0.075 bit/pixel
Аудио: mp3, 48kHz,2 ch,128kbps-Релиз: -

MI

General
Unique ID : 247660124232316026527511291455328487782 (0xBA519ADC9FF61A89A87DD300D2A80966)
Complete name : Fringe\FRINGE_Past.Present.Future_ A.Tragic.Past_Newstudio.TV_Frieng-tv.ru.mkv
Format : Matroska
File size : 73.4 MiB
Duration : 4mn 29s
Overall bit rate : 2 281 Kbps
Encoded date : UTC 2011-09-23 21:22:01
Writing application : mkvmerge v2.9.9 ('Tutu') built on Nov 25 2009 21:13:32
Writing library : libebml v0.7.9 + libmatroska v0.8.1
Video
ID : 1
Format : AVC
Format/Info : Advanced Video Codec
Format profile : High@L3.1
Format settings, CABAC : Yes
Format settings, ReFrames : 1 frame
Codec ID : V_MPEG4/ISO/AVC
Duration : 4mn 29s
Bit rate : 2 108 Kbps
Width : 1 280 pixels
Height : 720 pixels
Display aspect ratio : 16:9
Frame rate mode : Variable
Frame rate : 30.303 fps
Color space : YUV
Chroma subsampling : 4:2:0
Bit depth : 8 bits
Scan type : Progressive
Bits/(Pixel*Frame) : 0.075
Stream size : 67.8 MiB (92%)
Audio
ID : 3
Format : MPEG Audio
Format version : Version 1
Format profile : Layer 3
Mode : Joint stereo
Mode extension : MS Stereo
Codec ID : A_MPEG/L3
Codec ID/Hint : MP3
Duration : 4mn 29s
Bit rate mode : Constant
Bit rate : 128 Kbps
Channel(s) : 2 channels
Sampling rate : 48.0 KHz
Compression mode : Lossy
Stream size : 4.12 MiB (6%)
Text
ID : 2
Format : UTF-8
Codec ID : S_TEXT/UTF8
Codec ID/Info : UTF-8 Plain Text

Скриншоты

Список вебизодов

1. Природа не выбирает добро или зло...
2. Трагическое прошлое
3. История двух Уолтеров
4. Спастись бегством
5. Эхо прошлого
6. По ту сторону
7. В ином мире
8. Двойной агент
9. Дорога домой
10. Встреча с судьбой
11. Будущее наступило
12. Иной выбор
[cybertorrent.ru].t7848.torrent 
Торрент: Зарегистрирован [ 2018-02-18 23:20 ] · 639DA554CB2F0873390096573492EE430C4E6511

Скачать .torrent

Скачать

16 KB

Статус: проверено
Скачан: 0 раз
Размер: 747 MB
Профиль [ЛС]
Показать сообщения:    

Текущее время: 26-Май 17:29

Часовой пояс: UTC ± 0



Вы не можете начинать темы
Вы не можете отвечать на сообщения
Вы не можете редактировать свои сообщения
Вы не можете удалять свои сообщения
Вы не можете голосовать в опросах
Вы не можете прикреплять файлы к сообщениям
Вы можете скачивать файлы