Статистика раздачи
Размер:  37,37 GB   |    Зарегистрирован:  3 месяца 8 дней   |    Скачан:  0 раз

Полного источника не было: Никогда

 
   
 
 

RU_DR ®

Пол:
Не указан
Стаж:
3 месяца 10 дней
Сообщений:
268

Солдаты 5
Год выпуска: 2005
Производство: Леан-М
Жанр: Комедия
Продолжительность: 912 минут
Субтитры: нет
Режиссёр: Сергей Арланов
В ролях: Алексей Маклаков, Алексей Ошурков, Мария Аронова, Игнатий Акрачков, Вячеслав Гришечкин, Павел Майков, Иван Моховиков, Екатерина Юдина, Иван Жидков, Юрий Шибанов, Александр Фиронов, Максим Мальцев, Василий Шевелилкин, Павел Галич, Анатолий Кощеев, Татьяна Кузнецова, Софья Ануфриева, Марина Зайцева, Ольга Юрасова, Артем Григорьев, Михаил Горский, Юрий Макеев, Руслан Сасин, Назар Ас-Самаррай
Описание: В новом сезоне "Солдат" создатели популярного сериала пытаются поставить точки там, где они должны стоять. Но при этом дают новое развитие вечной истории о службе в армии. В новых "Солдатах" в воинскую часть приезжают новые солдаты. В них угадываются черты тех, кто совсем недавно участвовал в покорении воинской науки и телевизионных рейтингов. Но - это совсем другие солдаты, с характерами и привычками, присущими следующему поколению новобранцев.
"Солдаты 5" - это еще и сезон расставаний. Вслед за "солдатами", оставившими расположение воинской части в четвертом сезоне, сериал покидает еще один персонаж. Но о нем многие из нас вместо добрых слов предпочли бы не говорить ничего. И вовсе не потому, что по сценарию ему уготована не лучшая доля…
Доп. информация:
Солдаты 1 / Серии: 16 из 16 (Сергей Арланов) [2004, Комедия, 4хDVD9, 2хDVD5]
Солдаты 2 / Серии: 16 из 16 (Сергей Арланов) [2004, Комедия, 4хDVD9]
Солдаты 3 / Серии: 16 из 16 (Сергей Арланов) [2005, Комедия, 4хDVD9, 2хDVD5]
Солдаты 4 / Серии: 19 из 19 (Сергей Арланов) [2005, Комедия, 6хDVD9]
Все раздачи сериала: тут
Сэмпл: скачать
Качество: DVD9
Формат: DVD-Video
Видео кодек: MPEG2
Аудио кодек: AC3
Видео: PAL 4:3 (720x576) VBR ~ 5732.29 kbps
Аудио: AC3, 2/0 (L,R) ch, 224 kbps, Delay 0 mSec
Спасибо всем, кто остаётся на раздаче !

MI

Общее
Полное имя : C:\Солдаты 5 (6 DVD)\Диск 1 (1-3 серии) (DVD9)\VTS_02_1.VOB
Формат : MPEG-PS
Размер файла : 1024 Мбайт
Продолжительность : 25 м.
Режим общего битрейта : Переменный
Общий поток : 5626 Кбит/сек
Видео
Идентификатор : 224 (0xE0)
Формат : MPEG Video
Версия формата : Version 2
Профиль формата : Main@Main
Параметр BVOP формата : Да
Параметр матрицы формата : Выборочная
Продолжительность : 25 м.
Вид битрейта : Переменный
Битрейт : 5290 Кбит/сек
Максимальный битрейт : 8500 Кбит/сек
Ширина : 720 пикселей
Высота : 576 пикселей
Соотношение сторон : 4:3
Частота кадров : 25,000 кадров/сек
Стандарт вещания : PAL
Цветовое пространство : YUV
Субдискретизация насыщенности : 4:2:0
Битовая глубина : 8 бит
Тип развёртки : Чересстрочная
Порядок развёртки : Нижнее поле первое
Метод сжатия : С потерями
Бит/(Пиксели*Кадры) : 0.510
Размер потока : 963 Мбайт (94%)
Аудио
Идентификатор : 189 (0xBD)-128 (0x80)
Формат : AC-3
Формат/Информация : Audio Coding 3
Расширение режима : CM (complete main)
Режим смешивания : DVD-Video
Продолжительность : 25 м.
Вид битрейта : Постоянный
Битрейт : 224 Кбит/сек
Каналы : 2 канала
Расположение каналов : Front: L R
Частота : 48,0 КГц
Битовая глубина : 16 бит
Метод сжатия : С потерями
Размер потока : 40,8 Мбайт (4%)
Меню

DVDInfo

Title: Диск 1 (1-3 серии) (DVD9)
Size: 6.27 Gb ( 6 574 436,00 KBytes ) - DVD-9
Enabled regions: 5
VTS_01 :
Play Length: 00:00:25
Video: PAL 4:3 (720x576) VBR
Audio:
Russian (Dolby AC3, 6 ch)
VTS_02 :
Play Length: 00:47:31
Video: PAL 4:3 (720x576) VBR
Audio:
Russian, AC3, 2/0 (L,R) ch, 224 kbps, Delay 0 mSec
VTS_03 :
Play Length: 00:47:31
Video: PAL 4:3 (720x576) VBR
Audio:
Russian (Dolby AC3, 2 ch)
VTS_04 :
Play Length: 00:47:31
Video: PAL 4:3 (720x576) VBR
Audio:
Russian (Dolby AC3, 2 ch)
VTS_05 :
Play Length: 00:00:39+{00:00:39}+{00:00:39}
Video: PAL 4:3 (720x576) VBR
Audio:
Russian (Dolby AC3, 2 ch)
VTS_06 :
Play Length: 00:01:30+{00:01:30}+{00:01:30}
Video: PAL 16:9 (720x576) VBR, Auto Pan&Scan, Auto Letterboxed
Audio:
Russian (Dolby AC3, 6 ch)
VTS_07 :
Play Length: 00:01:54+{00:01:54}+{00:01:54}
Video: PAL 4:3 (720x576) VBR
Audio:
Russian, AC3, 2/0 (L,R) ch, 224 kbps, Delay 0 mSec
VTS_08 :
Play Length: 00:01:13+{00:01:13}+{00:01:13}
Video: PAL 4:3 (720x576) VBR
Audio:
Russian (Dolby AC3, 2 ch)
VTS_09 :
Play Length: 00:00:39+{00:00:39}+{00:00:39}
Video: PAL 4:3 (720x576) VBR
Audio:
Russian (Dolby AC3, 2 ch)
VTS_10 :
Play Length: 00:00:42+{00:00:42}+{00:00:42}
Video: PAL 4:3 (720x576) VBR
Audio:
Russian (Dolby AC3, 2 ch)
VTS_11 :
Play Length: 00:00:49+{00:00:49}+{00:00:49}
Video: PAL 4:3 (720x576) VBR
Audio:
Russian (Dolby AC3, 2 ch)
VTS_12 :
Play Length: 00:00:54+{00:00:54}+{00:00:54}
Video: PAL 4:3 (720x576) VBR
Audio:
Russian (Dolby AC3, 2 ch)
* Menus Information *
VIDEO_TS Menu
Video:
PAL 4:3 (720x576) VBR
English Language Unit :
Title Menu
VTS_01 Menu
Video:
PAL 4:3 (720x576) VBR
Audio:
Not specified (Dolby AC3, 2 ch)
English Language Unit :
Root Menu
VTS_02 Menu
Video:
PAL 4:3 (720x576) VBR
English Language Unit :
Root Menu
Chapter (PTT) Menu
VTS_03 Menu
Video:
PAL 4:3 (720x576) VBR
English Language Unit :
Root Menu
Chapter (PTT) Menu
VTS_04 Menu
Video:
PAL 4:3 (720x576) VBR
English Language Unit :
Root Menu
Chapter (PTT) Menu
VTS_05 Menu
Video:
PAL 4:3 (720x576) VBR
English Language Unit :
Root Menu
Chapter (PTT) Menu
VTS_06 Menu
Video:
PAL 4:3 (720x576) VBR
English Language Unit :
Root Menu
Chapter (PTT) Menu
VTS_07 Menu
Video:
PAL 4:3 (720x576) VBR
English Language Unit :
Root Menu
Chapter (PTT) Menu
VTS_08 Menu
Video:
PAL 4:3 (720x576) VBR
English Language Unit :
Root Menu
Chapter (PTT) Menu
VTS_09 Menu
Video:
PAL 4:3 (720x576) VBR
English Language Unit :
Root Menu
Chapter (PTT) Menu
VTS_10 Menu
Video:
PAL 4:3 (720x576) VBR
English Language Unit :
Root Menu
Chapter (PTT) Menu
VTS_11 Menu
Video:
PAL 4:3 (720x576) VBR
English Language Unit :
Root Menu
Chapter (PTT) Menu
VTS_12 Menu
Video:
PAL 4:3 (720x576) VBR
English Language Unit :
Root Menu
Chapter (PTT) Menu

Скриншоты

[cybertorrent.ru].t7997.torrent 
Торрент: Зарегистрирован [ 2018-02-18 23:20 ] · 71B79E5E898E7CDF64AD1871E3AEFEEC05CFAE83

Скачать .torrent

Скачать

70 KB

Статус: проверено
Скачан: 0 раз
Размер: 37,37 GB
Профиль [ЛС]
Показать сообщения:    

Текущее время: 27-Май 05:23

Часовой пояс: UTC ± 0



Вы не можете начинать темы
Вы не можете отвечать на сообщения
Вы не можете редактировать свои сообщения
Вы не можете удалять свои сообщения
Вы не можете голосовать в опросах
Вы не можете прикреплять файлы к сообщениям
Вы можете скачивать файлы