Статистика раздачи
Размер:  10,74 GB   |    Зарегистрирован:  4 дня   |    Скачан:  0 раз

Полного источника не было: Никогда

Личеров:  4  [  0 KB/s  ]   Подробная статистика пиров
 
   
 
 

THT ®

Пол:
Не указан
Стаж:
7 дней
Сообщений:
477

Тайны следствия 13
Год выпуска: 2013
Производство: Россия, Форвард-Фильм, Студия
Жанр: Детектив, драма, криминал
Продолжительность: 20 x ~ 00:44:00
Субтитры: Нет
Режиссёр: Рената Грицкова
В ролях: Анна Ковальчук, Вячеслав Захаров, Игорь Николаев (II), Александр Новиков (III), Игорь Григорьев (IV), Мирослав Малич, Злата Ильченко, Юлия Яковлева, Андрей Шарков, Олег Алмазов, Дмитрий Поднозов, Ольга Павловец
Описание: Под руководством Ковина Швецова, наконец, получает ту степень необходимой свободы, о которой так долго мечтала, пока начальственное кресло занимал её давний недоброжелатель Филонов. Оценив преимущества нового положения, Маша примиряется с тем, что её собственные достоинства как руководителя опять не были оценены "наверху", и с головой окунается в дела, поток которых не иссякает ни на минуту. Убийства и прочие преступления, оказавшиеся в поле её зрения, полностью поглощают внимание Швецовой, но даже за пределами стен рабочего кабинета ей теперь не найти былого покоя: Луганский отправляется в длительную командировку, а значит, Маша вновь не будет находить себе места от волнения за любимого супруга...
Все раздачи сериала: http://rutracker.org/forum/tracker.php?nm=%D2%E0%E9%ED%FB+%F1%EB%E5%E4%F1%F2%E2%E8%FF
Сэмпл: https://www.sendspace.com/file/rzyrbk
Качество: HDTVRip
Формат: AVI
Видео кодек: XviD
Аудио кодек: AC3
Видео: XviD; 1546 Кбит/сек; 720х400 (16:9); 25,000 кадров/сек; Бит/(Пиксели*Кадры) : 0.215
Аудио: AC-3; 192 Кбит/сек; 2 канала; 48,0 КГц

MI

Общее
Полное имя : E:\закачки\Тайны следствия 13 [rutracker.org]\01.avi
Формат : AVI
Формат/Информация : Audio Video Interleave
Размер файла : 550 Мбайт
Продолжительность : 43 м.
Общий поток : 1748 Кбит/сек
Программа кодирования : VirtualDubMod 1.5.10.3 | www.virtualdub-fr.org || (build 2550/release)
Библиотека кодирования : VirtualDubMod build 2550/release
Видео
Идентификатор : 0
Формат : MPEG-4 Visual
Профиль формата : Advanced Simple@L5
Параметр BVOP формата : 1
Параметр QPel формата : Нет
Параметр GMC формата : Без точки перехода
Параметр матрицы формата : Default (H.263)
Идентификатор кодека : XVID
Идентификатор кодека/Подсказка : XviD
Продолжительность : 43 м.
Битрейт : 1546 Кбит/сек
Ширина : 720 пикселей
Высота : 400 пикселей
Соотношение сторон : 16:9
Частота кадров : 25,000 кадров/сек
Цветовое пространство : YUV
Субдискретизация насыщенности : 4:2:0
Битовая глубина : 8 бит
Тип развёртки : Прогрессивная
Метод сжатия : С потерями
Бит/(Пиксели*Кадры) : 0.215
Размер потока : 486 Мбайт (88%)
Библиотека кодирования : XviD 1.2.1 (UTC 2008-12-04)
Аудио
Идентификатор : 1
Формат : AC-3
Формат/Информация : Audio Coding 3
Расширение режима : CM (complete main)
Параметр Endianness формата : Big
Идентификатор кодека : 2000
Продолжительность : 43 м.
Вид битрейта : Постоянный
Битрейт : 192 Кбит/сек
Каналы : 2 канала
Расположение каналов : Front: L R
Частота : 48,0 КГц
Битовая глубина : 16 бит
Метод сжатия : С потерями
Размер потока : 60,4 Мбайт (11%)
Выравнивание : Разделение по промежуткам
Продолжительность промежутка : 40 мс. (1,00 видеокадр)
Время предзагрузки промежутка : 500 мс.

Скриншоты

[cybertorrent.ru].t8773.torrent 
Торрент: Зарегистрирован [ 2018-02-19 08:07 ] · FF831C8878C46E21B29A1A0BB9EF497B2D10E31B

Скачать .torrent

Скачать

55 KB

Статус: проверено
Скачан: 0 раз
Размер: 10,74 GB
terms.php
Профиль [ЛС]
Показать сообщения:    

Текущее время: 24-Фев 06:06

Часовой пояс: UTC ± 0



Вы не можете начинать темы
Вы не можете отвечать на сообщения
Вы не можете редактировать свои сообщения
Вы не можете удалять свои сообщения
Вы не можете голосовать в опросах
Вы не можете прикреплять файлы к сообщениям
Вы можете скачивать файлы