Статистика раздачи
Размер:  841 MB   |    Зарегистрирован:  3 месяца 10 дней   |    Скачан:  0 раз

Полного источника не было: Никогда

Личеров:  9  [  0 KB/s  ]  
 
   
 
 

Frozen ®

Пол:
Не указан
Стаж:
3 месяца 11 дней
Сообщений:
296

Япончик. Возвращение «крестного отца»
Дата/Год выпуска: 2004
Страна: Россия
Жанр: Документальный, политика, биография, криминал
Продолжительность: 00:59:01
Перевод: Не требуется
Русские субтитры: нет
Режиссер: Андрей Калитин
Телеканал: "Совершенно секретно"
Описание: 14 июля 2004 года из Нью-Йорка в Москву вернулся человек, одно имя которого многим до сих пор внушает ужас. Это имя стало легендой криминального мира. Вячеслав Иваньков, он же Япончик. Вор в законе. По данным российского МВД, лидер славянских преступных группировок страны. ФБР США считает Иванькова «крестным отцом» русской мафии во всем мире…
Начиная со времен СССР спецслужбы России и Америки пристально наблюдают за перипетиями богатой криминальной биографии Вячеслава Иванькова, До сих пор многие эпизоды его жизни окутаны тайной… Подробности кампании по досрочному освобождению Иванькова и его участие в переделе криминального мира Москвы в начале 90-х, стремительный загадочный отъезд Япончика в США и дело банка «Чара» — лишь некоторые из них. Приподнять завесу тайны, скрывающую многие факты своей биографии, попытается сам Вячеслав Иваньков. За всю свою жизнь он дал единственное телевизионное интервью журналистам телекомпании «Совершенно секретно».
Сэмпл: http://multi-up.com/1131537
качество: IPTVRip
формат: MKV
Видео: 720x480(3:2), в 25,000 кадров/сек, 1861 Кбит/сек, AVC (PAL) (High@L4) (CABAC / 3 Ref Frame
Аудио: 48,0 КГц, 2 канала, AAC (LC), ~128 kbps
Подобные раздачи: http://cybertorrent.ru/viewtopic.php?t=144144

MediaInfo

Общее
Уникальный идентификатор : 204012237600736136290698802079596001956 (0x997B53E6E0CABE059C32EE6FBEE7BAA4)
Полное имя : E:\Pshichko66\Na zapis'\Документальные фильмы\Совершенно секретно\Japonchik. Vozvrashhenie Krjostnogo otca.mkv
Формат : Matroska
Версия формата : Version 4 / Version 2
Размер файла : 841 Мбайт
Продолжительность : 59 м. 1 с.
Режим общего битрейта : Переменный
Общий поток : 1991 Кбит/сек
Дата кодирования : UTC 2016-12-18 12:40:07
Программа кодирования : mkvmerge v9.5.0 ('Quiet Fire') 64bit
Библиотека кодирования : libebml v1.3.4 + libmatroska v1.4.5
Видео
Идентификатор : 1
Формат : AVC
Формат/Информация : Advanced Video Codec
Профиль формата : High@L4
Параметр CABAC формата : Да
Параметр ReFrames формата : 3 кадра
Идентификатор кодека : V_MPEG4/ISO/AVC
Продолжительность : 59 м. 1 с.
Вид битрейта : Переменный
Битрейт : 1861 Кбит/сек
Максимальный битрейт : 1885 Кбит/сек
Ширина : 720 пикселей
Высота : 480 пикселей
Соотношение сторон : 3:2
Режим частоты кадров : Постоянный
Частота кадров : 25,000 кадров/сек
Стандарт вещания : PAL
Цветовое пространство : YUV
Субдискретизация насыщенности : 4:2:0
Битовая глубина : 8 бит
Тип развёртки : Прогрессивная
Бит/(Пиксели*Кадры) : 0.215
Размер потока : 786 Мбайт (93%)
Язык : Russian
Default : Да
Forced : Нет
Цветовой диапазон : Full
Основные цвета : BT.601 PAL
Характеристики трансфера : BT.470 System B, BT.470 System G
Коэффициенты матрицы : BT.601
Аудио
Идентификатор : 2
Формат : AAC
Формат/Информация : Advanced Audio Codec
Профиль формата : LC
Идентификатор кодека : A_AAC
Продолжительность : 59 м. 1 с.
Битрейт : 128 Кбит/сек
Каналы : 2 канала
Расположение каналов : Front: L R
Частота : 48,0 КГц
Частота кадров : 46,875 кадров/сек (1024 spf)
Метод сжатия : С потерями
Задержка видео : 9 мс.
Размер потока : 54,0 Мбайт (6%)
Язык : Russian
Default : Да
Forced : Нет

Скриншоты

[cybertorrent.ru].t2949.torrent 
Торрент: Зарегистрирован [ 2018-02-16 14:35 ] · EE77D7F8FE2390DE9E369D43E45DF48D8431E467

Скачать .torrent

Скачать

17 KB

Статус: проверено
Скачан: 0 раз
Размер: 841 MB
Профиль [ЛС]
Показать сообщения:    

Текущее время: 27-Май 05:25

Часовой пояс: UTC ± 0



Вы не можете начинать темы
Вы не можете отвечать на сообщения
Вы не можете редактировать свои сообщения
Вы не можете удалять свои сообщения
Вы не можете голосовать в опросах
Вы не можете прикреплять файлы к сообщениям
Вы можете скачивать файлы