Статистика раздачи
Размер:  7,98 GB   |    Зарегистрирован:  2 дня 14 часов   |    Скачан:  0 раз

Полного источника не было: Никогда

 
   
 
 

fill ®

Пол:
Не указан
Стаж:
3 дня
Сообщений:
46

Ловчий Смерти / Deathstalker
Страна: Аргентина, США
Студия: Aries Cinematografica Argentina
Жанр: фэнтези, приключения
Год выпуска: 1983
Продолжительность: 01:20:00--Перевод 1: Профессиональный (двухголосный закадровый) Ракурс
Перевод 2: Авторский (одноголосный закадровый) А.Михалёв
Субтитры: русские, английские
Оригинальная аудио дорожка: английская--Режиссер: Джеймс Сбарделлати / James Sbardellati--В ролях: Рик Хилл, Барби Бентон, Ричард Брукер, Лана Кларксон, Виктор Бо, Бернард Эрхард, Аугуст Ларрета, Адриан Де Пьеро, Лилиан Керр--Описание: В Дальней Земле отгороженной от мира кольцом гор лежит прекрасная страна, где властвуют могучие короли. Спокойствие и благоденствие королевств Дальней Земли не дают покоя злому волшебнику Манкару… Он похищает дочь короля Тулака принцессу Кодиллу.
Великий воин Дальней Земли Ловчий смерти отправляется на поиски трех волшебных амулетов. Только владея амулетами, он сможет противостоять могущественным чарам Манкара и спасти принцессу.--Сэмпл: http://sendfile.su/1314748--Тип релиза: BDRip 720p
Контейнер: MKV
Видео кодек: H/264
Аудио кодек: DTS, AC-3
Видео: MPEG4/AVC, 16:9, 23.976 (24000/1001) FPS, 1280x706 p, 12.1 Mb/s
Аудио 1: RUS / DVO, AC-3, 48.0 kHz, 2,0, 192 kb/s | закадровый Ракурс
Аудио 2: RUS / AVO, AC-3, 48.0 kHz, 2,0, 192 kb/s | авторский
Аудио 3: ENG / нет, DTS, 48.0 kHz, 2,0, 1509 kb/s | оригинал
Формат субтитров: softsub (SRT)
Релиз:

MediaInfo

x264
x264 [info]: profile High, level 4.1
x264 [info]: frame I:743 Avg QP:16.67 size:138802
x264 [info]: frame P:22851 Avg QP:17.78 size: 83499
x264 [info]: frame B:91477 Avg QP:19.28 size: 59281
Формат : AVC
Формат/Информация : Advanced Video Codec
Профиль формата : High@L4.1
Параметр CABAC формата : Да
Параметр ReFrames формата : 9 кадров
Идентификатор кодека : V_MPEG4/ISO/AVC
Продолжительность : 1 ч. 20 м.
Битрейт : 12,1 Мбит/сек
Ширина : 1280 пикселей
Высота : 706 пикселей
Соотношение сторон : 16:9
Режим частоты кадров : Постоянный
Частота кадров : 23,976 (24000/1001) кадра/сек
Цветовое пространство : YUV
Субдискретизация насыщенности : 4:2:0
Битовая глубина : 8 бит
Тип развёртки : Прогрессивная
Бит/(Пиксели*Кадры) : 0.559
Размер потока : 6,77 Гбайт (85%)
Заголовок : Deathstalker - Rip from Rutracker <>
Библиотека кодирования : x264 core 148 r2744 b97ae06
Настройки программы : cabac=1 / ref=9 / deblock=1:-1:-1 / analyse=0x3:0x113 / me=umh / subme=10 / psy=1 / psy_rd=0.90:0.00 / mixed_ref=1 / me_range=24 / chroma_me=1 / trellis=2 / 8x8dct=1 / cqm=0 / deadzone=21,11 / fast_pskip=1 / chroma_qp_offset=-2 / threads=6 / lookahead_threads=1 / sliced_threads=0 / nr=0 / decimate=0 / interlaced=0 / bluray_compat=0 / constrained_intra=0 / bframes=11 / b_pyramid=2 / b_adapt=2 / b_bias=0 / direct=1 / weightb=1 / open_gop=0 / weightp=2 / keyint=250 / keyint_min=23 / scenecut=40 / intra_refresh=0 / rc_lookahead=60 / rc=crf / mbtree=0 / crf=16.9 / qcomp=0.67 / qpmin=0 / qpmax=69 / qpstep=4 / vbv_maxrate=62500 / vbv_bufsize=78125 / crf_max=0.0 / nal_hrd=none / filler=0 / ip_ratio=1.30 / pb_ratio=1.20 / aq=2:0.72
Default : Да
Forced : Нет
Statistics Tags Issue : mkvmerge v9.9.0 ('Pick Up') 64bit 2017-03-01 15:42:08 / mkvmerge v7.6.0 ('Garden of Dreams') 32bit built on Feb 11 2015 00:18:47 2017-03-01 19:33:02
FromStats_BitRate : 12391559
FromStats_Duration : 01:19:59.420000000
FromStats_FrameCount : 115071
FromStats_StreamSize : 7434037430
Аудио #1
Идентификатор : 2
Формат : AC-3
Формат/Информация : Audio Coding 3
Расширение режима : CM (complete main)
Параметр Endianness формата : Big
Идентификатор кодека : A_AC3
Продолжительность : 1 ч. 20 м.
Вид битрейта : Постоянный
Битрейт : 192 Кбит/сек
Каналы : 2 канала
Расположение каналов : Front: L R
Частота : 48,0 КГц
Частота кадров : 31,250 кадров/сек (1536 spf)
Битовая глубина : 16 бит
Метод сжатия : С потерями
Размер потока : 110 Мбайт (1%)
Заголовок : закадровый Ракурс
Язык : Russian
Default : Да
Forced : Нет
Аудио #2
Идентификатор : 3
Формат : AC-3
Формат/Информация : Audio Coding 3
Расширение режима : CM (complete main)
Параметр Endianness формата : Big
Идентификатор кодека : A_AC3
Продолжительность : 1 ч. 20 м.
Вид битрейта : Постоянный
Битрейт : 192 Кбит/сек
Каналы : 2 канала
Расположение каналов : Front: L R
Частота : 48,0 КГц
Частота кадров : 31,250 кадров/сек (1536 spf)
Битовая глубина : 16 бит
Метод сжатия : С потерями
Размер потока : 110 Мбайт (1%)
Заголовок : авторский А.Михалев
Язык : Russian
Default : Нет
Forced : Нет
Аудио #3
Идентификатор : 4
Формат : DTS
Формат/Информация : Digital Theater Systems
Режим : 16
Параметр Endianness формата : Big
Идентификатор кодека : A_DTS
Продолжительность : 1 ч. 20 м.
Вид битрейта : Постоянный
Битрейт : 1509 Кбит/сек
Каналы : 2 канала
Расположение каналов : Front: L R
Частота : 48,0 КГц
Частота кадров : 93,750 кадра/сек (512 spf)
Битовая глубина : 24 бит
Метод сжатия : С потерями
Размер потока : 864 Мбайт (11%)
Заголовок : оригинал
Язык : English
Default : Нет
Forced : Нет
Текст #1
Идентификатор : 5
Формат : UTF-8
Идентификатор кодека : S_TEXT/UTF8
Идентификатор кодека/Информация : UTF-8 Plain Text
Заголовок : русские
Язык : Russian
Default : Нет
Forced : Нет
Текст #2
Идентификатор : 6
Формат : UTF-8
Идентификатор кодека : S_TEXT/UTF8
Идентификатор кодека/Информация : UTF-8 Plain Text
Заголовок : английские
Язык : English
Default : Нет
Forced : Нет

Скриншоты

Пример субтитров

10
00:05:41,950 --> 00:05:45,182
Сегодня тебе, кажется просто не везёт?
11
00:07:07,031 --> 00:07:08,491
Что тебе надо?
12
00:07:08,595 --> 00:07:10,681
Как тебя зовут?
13
00:07:14,851 --> 00:07:18,292
Выйди за дверь,
и подожди меня.
14
00:07:28,823 --> 00:07:31,430
Мне сегодня, кажется, тоже не везёт.
15
00:08:13,136 --> 00:08:16,369
Ты что-то обеднел, Король. Кажется тебе
скоро придётся съесть свою собаку.
16
00:08:16,994 --> 00:08:20,122
Надеюсь, она будет такая же вкусная,
как та, которую ты ешь.
17
00:08:21,269 --> 00:08:23,042
Настоящие короли живут в замке.
18
00:08:23,042 --> 00:08:24,710
А теперь в замке живёт Мункар.
19
00:08:24,814 --> 00:08:26,483
Мункар был моим волшебником.
20
00:08:26,587 --> 00:08:29,298
И замок был моим.
И скоро станет моим снова.
[cybertorrent.ru].t3126.torrent 
Торрент: Зарегистрирован [ 2018-02-16 17:30 ] · 23DC7BFE178A395D266B0779724F0763018199FA

Скачать .torrent

Скачать

20 KB

Статус: проверено
Скачан: 0 раз
Размер: 7,98 GB
terms.php
Профиль [ЛС]
Показать сообщения:    

Текущее время: 19-Фев 07:48

Часовой пояс: UTC ± 0



Вы не можете начинать темы
Вы не можете отвечать на сообщения
Вы не можете редактировать свои сообщения
Вы не можете удалять свои сообщения
Вы не можете голосовать в опросах
Вы не можете прикреплять файлы к сообщениям
Вы можете скачивать файлы