Статистика раздачи
Размер:  745 MB   |    Зарегистрирован:  3 месяца 11 дней   |    Скачан:  0 раз

Полного источника не было: Никогда

 
   
 
 

lopster ®

Пол:
Не указан
Стаж:
3 месяца 11 дней
Сообщений:
612

Теснота
Выпущено: Пионер
Жанр: Драма
Год выпуска: 2017
Продолжительность: 01:57:50
Субтитры: Русские (форс., вшитые)-Режиссер:
Кантемир Балагов-В ролях:
Дарья Жовнер, Ольга Драгунова, Артем Цыпин, Вениамин Кац, Назир Жуков, Егор Шевяков-Описание:
1998 год, Нальчик. Илана — девочка-подросток из хорошей семьи, которая все делает наоборот. Перечит матери. Спорит с отцом. Чинит машины в автомастерской, не вылезая из спецодежды. Встречается с парнем, который не нравится ее родителям. Пацанка и красавица, она идет своим путем и жаждет свободы, но когда в доме происходит страшная трагедия, именно Илана оказывается единственной, кто способен спасти семью. Однако какой ценой?-Качество видео: WEB-DLRip | Tesnota.2017.O.1080p.WEB-DL
Формат видео: AVI
Видео: 672x496 (1.35:1), 25 fps, XviD build 73 ~746 kbps avg, 0.09 bit/pixel
Аудио: 48 kHz, MPEG Layer 3, 2 ch, ~128.00 kbps avg-Сэмпл-

MediaInfo

Код:Format : AVI
Format/Info : Audio Video Interleave
File size : 745 MiB
Duration : 1 h 57 min
Overall bit rate : 884 kb/s
Writing application : VirtualDubMod 1.5.10.3 | www.virtualdub-fr.org || (build 2550/release)
Writing library : VirtualDubMod build 2550/release
Video
ID : 0
Format : MPEG-4 Visual
Format profile : Advanced Simple@L5
Format settings, BVOP : 1
Format settings, QPel : No
Format settings, GMC : No warppoints
Format settings, Matrix : Default (H.263)
Codec ID : XVID
Codec ID/Hint : XviD
Duration : 1 h 57 min
Bit rate : 747 kb/s
Width : 672 pixels
Height : 496 pixels
Display aspect ratio : 4:3
Frame rate : 25.000 FPS
Color space : YUV
Chroma subsampling : 4:2:0
Bit depth : 8 bits
Scan type : Progressive
Compression mode : Lossy
Bits/(Pixel*Frame) : 0.090
Stream size : 629 MiB (84%)
Writing library : XviD 73
Audio
ID : 1
Format : MPEG Audio
Format version : Version 1
Format profile : Layer 3
Codec ID : 55
Codec ID/Hint : MP3
Duration : 1 h 57 min
Bit rate mode : Constant
Bit rate : 128 kb/s
Channel(s) : 2 channels
Sampling rate : 48.0 kHz
Compression mode : Lossy
Stream size : 108 MiB (14%)
Alignment : Aligned on interleaves
Interleave, duration : 40 ms (1.00 video frame)
Interleave, preload duratio : 504 ms
Writing library : LAME3.99r
Encoding settings : -m s -V 4 -q 2 -lowpass 17 -b 128

Скриншоты

[cybertorrent.ru].t379.torrent 
Торрент: Зарегистрирован [ 2018-02-15 15:48 ] · FB13804CCE769E2C8AA9A265453EA234FDE2FD17

Скачать .torrent

Скачать

15 KB

Статус: проверено
Скачан: 0 раз
Размер: 745 MB
Профиль [ЛС]
Показать сообщения:    

Текущее время: 26-Май 17:39

Часовой пояс: UTC ± 0



Вы не можете начинать темы
Вы не можете отвечать на сообщения
Вы не можете редактировать свои сообщения
Вы не можете удалять свои сообщения
Вы не можете голосовать в опросах
Вы не можете прикреплять файлы к сообщениям
Вы можете скачивать файлы