Статистика раздачи
Размер:  746 MB   |    Зарегистрирован:  3 месяца 11 дней   |    Скачан:  0 раз
Сидов:  20  [  0 KB/s  ]   Личеров:  1  [  0 KB/s  ]  
 
   
 
 

lopster ®

Пол:
Не указан
Стаж:
3 месяца 11 дней
Сообщений:
612

Теснота
Жанр: драма
Год выпуска: 2017
Продолжительность: 01:57:50
Субтитры: русские (форсированные, хардсаб)
Режиссер: Кантемир Балагов
В ролях: Дарья Жовнер, Ольга Драгунова, Артем Цыпин, Вениамин Кац, Назир Жуков, Егор Шевяков
Описание:
1998 год, Нальчик. Илана - девочка-подросток из хорошей семьи, которая все делает наоборот. Перечит матери. Спорит с отцом. Чинит машины в автомастерской, не вылезая из спецодежды. Встречается с парнем, который не нравится ее родителям. Пацанка и красавица, она идет своим путем и жаждет свободы, но когда в доме происходит страшная трагедия, именно Илана оказывается единственной, кто способен спасти семью. Однако какой ценой?

Автор рипа: stalkerok
Сэмпл
Качество видео: WEB-DLRip-AVC [Tesnota.2017.O.1080p.WEB-DL.Rustorrents]
Формат видео: MKV
Видео: 819 Кбит/сек, 628*464 (4:3), в 25,000 кадров/сек, AVC
Аудио: русский, 64,0 Кбит/сек, 48,0 КГц / 24,0 КГц, 2 канала, AAC (HE-AAC / LC)
Навигация по главам: есть

x264/MediaInfo

x264 [info]: frame I:852 Avg QP:15.80 size: 28437
x264 [info]: frame P:42758 Avg QP:19.02 size: 8589
x264 [info]: frame B:133143 Avg QP:20.68 size: 2495
Общее
Уникальный идентификатор : 219913978854849076170534292238418862488 (0xA571E446E20FA26786E02F84661C6198)
Полное имя : M:\!Rips2017\Tesnota\Tesnota.2017.WEB-DLRip-AVC.RUS..stalkerok.new-team.mkv
Формат : Matroska
Версия формата : Version 4 / Version 2
Размер файла : 746 Мбайт
Продолжительность : 1 ч. 57 м.
Общий поток : 885 Кбит/сек
Название фильма : Теснота (2017) (Rip by stalkerok)
Дата кодирования : UTC 2017-09-20 09:52:21
Программа кодирования : mkvmerge v8.6.1 ('Flying') 64bit
Библиотека кодирования : libebml v1.3.3 + libmatroska v1.4.4
Видео
Идентификатор : 1
Формат : AVC
Формат/Информация : Advanced Video Codec
Профиль формата : High@L4.1
Параметр CABAC формата : Да
Параметр ReFrames формата : 16 кадров
Идентификатор кодека : V_MPEG4/ISO/AVC
Продолжительность : 1 ч. 57 м.
Битрейт : 819 Кбит/сек
Ширина : 628 пикселей
Высота : 464 пикселя
Соотношение сторон : 4:3
Соотношение сторон в оригинале : 4:3
Режим частоты кадров : Постоянный
Частота кадров : 25,000 кадров/сек
Цветовое пространство : YUV
Субдискретизация насыщенности : 4:2:0
Битовая глубина : 8 бит
Тип развёртки : Прогрессивная
Бит/(Пиксели*Кадры) : 0.112
Размер потока : 690 Мбайт (93%)
Заголовок : Теснота (2017) (Rip by stalkerok)
Библиотека кодирования : x264 core 150 r2833kMod df79067
Настройки программы : cabac=1 / ref=16 / deblock=1:-3:-2 / analyse=0x3:0x133 / me=umh / subme=11 / psy=1 / fade_compensate=0.00 / psy_rd=1.00:0.00 / mixed_ref=1 / me_range=32 / chroma_me=1 / trellis=2 / 8x8dct=1 / cqm=0 / deadzone=21,11 / fast_pskip=0 / chroma_qp_offset=-2 / threads=12 / lookahead_threads=3 / sliced_threads=0 / nr=0 / decimate=0 / interlaced=0 / bluray_compat=0 / constrained_intra=0 / bframes=16 / b_pyramid=2 / b_adapt=2 / b_bias=0 / direct=3 / weightb=1 / open_gop=0 / weightp=2 / keyint=250 / keyint_min=25 / scenecut=40 / intra_refresh=0 / rc_lookahead=60 / rc=2pass / mbtree=0 / bitrate=819 / ratetol=1.0 / qcomp=0.65 / qpmin=0 / qpmax=69 / qpstep=4 / cplxblur=20.0 / qblur=0.5 / vbv_maxrate=50000 / vbv_bufsize=62500 / nal_hrd=none / filler=0 / ip_ratio=1.30 / pb_ratio=1.20 / aq=3:0.90
Default : Да
Forced : Нет
Аудио
Идентификатор : 2
Формат : AAC
Формат/Информация : Advanced Audio Codec
Профиль формата : HE-AAC / LC
Идентификатор кодека : A_AAC
Продолжительность : 1 ч. 57 м.
Битрейт : 64,0 Кбит/сек
Каналы : 2 канала
Расположение каналов : Front: L R
Частота : 48,0 КГц / 24,0 КГц
Частота кадров : 23,438 кадра/сек (1024 spf)
Метод сжатия : С потерями
Задержка видео : 31 мс.
Размер потока : 53,9 Мбайт (7%)
Язык : Russian
Default : Да
Forced : Нет
Меню
00:00:00.000 : en:Глава 1
00:06:30.200 : en:Глава 2
00:11:41.760 : en:Глава 3
00:18:52.159 : en:Глава 4
00:24:57.879 : en:Глава 5
00:31:05.879 : en:Глава 6
00:38:13.838 : en:Глава 7
00:46:20.397 : en:Глава 8
00:56:37.797 : en:Глава 9
01:04:11.717 : en:Глава 10
01:12:02.797 : en:Глава 11
01:18:13.236 : en:Глава 12
01:23:56.595 : en:Глава 13
01:29:24.914 : en:Глава 14
01:37:29.714 : en:Глава 15
01:44:16.474 : en:Глава 16

Скриншоты

[cybertorrent.ru].t381.torrent 
Торрент: Зарегистрирован [ 2018-02-15 15:48 ] · 1657558A0CA402EB697C88C5553513FAC90A6256

Скачать .torrent

Скачать

15 KB

Статус: проверено
Скачан: 0 раз
Размер: 746 MB
Профиль [ЛС]
Показать сообщения:    

Текущее время: 26-Май 17:39

Часовой пояс: UTC ± 0



Вы не можете начинать темы
Вы не можете отвечать на сообщения
Вы не можете редактировать свои сообщения
Вы не можете удалять свои сообщения
Вы не можете голосовать в опросах
Вы не можете прикреплять файлы к сообщениям
Вы можете скачивать файлы