Статистика раздачи
Размер:  1,47 GB   |    Зарегистрирован:  3 месяца 11 дней   |    Скачан:  0 раз

Полного источника не было: Никогда

 
   
 
 

lopster ®

Пол:
Не указан
Стаж:
3 месяца 11 дней
Сообщений:
612

Супермент
Жанр: боевик, приключения
Год выпуска: 1990
Продолжительность: 02:11:38
Режиссёр: Валерий Харченко
В ролях: Вадим Андреев, Мария Авдюшко, Клара Белова, Михаил Филиппов, Арчил Гомиашвили, Деана Хорватова, Валерий Ивченко, Сулев Луйк, Константин Роднин, Улдис Вейспал
Описание: "Супермент - это главный герой картины, майор уголовного розыска, эдакий супермен по кличке Шериф, наводящий ужас на бандитов в курортном приморском городке. Действует он с стиле "Грязного Гарри", но только покруче, что видно уже в самом начале по тому, как он катает на машине свою любовницу, переводчицу из Интуриста - гонки на выживание. Охотится он на торговцев наркотиками, ловит, стреляет среди толпы людей, а задержанные потом все дружно отказываются от показаний. Дострелялся шериф - отстраняют его от оперативной работы, но он, понятно, не сдается. Он вступает в борьбу с мафией, как комиссар Каттани... Он же - супермент! А как ему идет щетина на мужественном лице! Только для любителей отечественных боевиков". (Иванов М.)
Доп. информация: Оцифровка VHS (личный архив) и получение VHSRip alenavova
Эксклюзив для rutracker.org. При размещении данного релиза на других сайтах ссылка на автора alenavova обязательна.
Релиз
Сэмпл: https://yadi.sk/i/p8SgM5gx3NAFni
Качество видео: VHSRip
Формат видео: AVI
Видео: 704x528 (1.33:1), 25 fps, XviD build 73 ~1391 kbps avg, 0.15 bit/pixel
Аудио: 48 kHz, AC3 Dolby Digital, 2/0 (L,R) ch, ~192 kbps

MediaInfo

Супермент [by alenavova].avi
Format : AVI
Format/Info : Audio Video Interleave
File size : 1.47 GiB
Duration : 2 h 11 min
Overall bit rate : 1 593 kb/s
Movie name : Супермент [by alenavova]
Director : by alenavova
Writing application : VirtualDubMod 1.5.10.3 | www.virtualdub-fr.org || (build 2550/release)
Copyright : Edich2
Comment : RuTracker.org
Video
ID : 0
Format : MPEG-4 Visual
Format profile : Advanced Simple@L5
Format settings, BVOP : 2
Format settings, QPel : No
Format settings, GMC : No warppoints
Format settings, Matrix : Custom
Codec ID : XVID
Codec ID/Hint : XviD
Duration : 2 h 11 min
Bit rate : 1 392 kb/s
Width : 704 pixels
Height : 528 pixels
Display aspect ratio : 4:3
Frame rate : 25.000 FPS
Color space : YUV
Chroma subsampling : 4:2:0
Bit depth : 8 bits
Scan type : Progressive
Compression mode : Lossy
Bits/(Pixel*Frame) : 0.150
Stream size : 1.28 GiB (87%)
Writing library : XviD 73
Audio
ID : 1
Format : AC-3
Format/Info : Audio Coding 3
Format settings, Endianness : Big
Codec ID : 2000
Duration : 2 h 11 min
Bit rate mode : Constant
Bit rate : 192 kb/s
Channel(s) : 2 channels
Channel positions : Front: L R
Sampling rate : 48.0 kHz
Frame rate : 31.250 FPS (1536 spf)
Bit depth : 16 bits
Compression mode : Lossy
Stream size : 181 MiB (12%)
Alignment : Split accross interleaves
Interleave, duration : 40 ms (1.00 video frame)
Interleave, preload duratio : 500 ms
Service kind : Complete Main

Скриншоты


[cybertorrent.ru].t384.torrent 
Торрент: Зарегистрирован [ 2018-02-15 15:48 ] · A05F3565AC53C0F67EA349F0E3B79EA048EBF9F3

Скачать .torrent

Скачать

15 KB

Статус: проверено
Скачан: 0 раз
Размер: 1,47 GB
Профиль [ЛС]
Показать сообщения:    

Текущее время: 27-Май 05:28

Часовой пояс: UTC ± 0



Вы не можете начинать темы
Вы не можете отвечать на сообщения
Вы не можете редактировать свои сообщения
Вы не можете удалять свои сообщения
Вы не можете голосовать в опросах
Вы не можете прикреплять файлы к сообщениям
Вы можете скачивать файлы