Статистика раздачи
Размер:  1,46 GB   |    Зарегистрирован:  3 дня   |    Скачан:  0 раз

Полного источника не было: Никогда

 
   
 
 

lopster ®

Пол:
Не указан
Стаж:
3 дня
Сообщений:
509

Гоголь. Начало
Выпущено: Каропрокат
Жанр: приключения, триллер, детектив
Год выпуска: 2017
Продолжительность: 01:46:42
Субтитры: нет-Режиссер: Егор Баранов-В ролях: Александр Петров, Олег Меньшиков, Евгений Стычкин, Таисия Вилкова, Артем Ткаченко, Юлия Франц, Евгений Сытый, Ян Цапник, Сергей Бадюк, Марта Тимофеева-Описание: Казаки, ведьмы, русалки, утопленницы и другие обитатели Диканьки встречаются лицом к лицу со своим создателем Николаем Гоголем, молодым писарем из Петербурга, который страдает загадочными припадками и может общаться с персонажами из потустороннего мира. Вместе со своим начальником, блестящим столичным следователем Яковым Гуро, начинающий писатель приезжает на Полтавщину расследовать таинственные убийства девушек. Здесь же он встречает свою любовь, которой суждено сыграть роковую роль в его судьбе. Но хватит ли юному литератору духу противостоять невообразимому? Ведь по слухам, которые активно разносят напуганные местные жители, за преступлениями стоит не кто иной, как сам Дьявол в обличии черного всадника.-Качество видео: WEB-DLRip | Gogol.Nachalo.2017.1080p.WEB-DL.Rus.EliteHD
Формат видео: AVI
Видео: 720x304 (2.37:1), 24.000 fps, XviD build 73 ~1563 kbps avg, 0.30 bit/pixel
Аудио: 48 kHz, AC3 Dolby Digital, 3/2 (L,C,R,l,r) + LFE ch, ~384 kbps-Скачать сэмпл-

MediaInfo

Код:Format : AVI
Format/Info : Audio Video Interleave
File size : 1.46 GiB
Duration : 1 h 46 min
Overall bit rate : 1 957 kb/s
Writing application : VirtualDubMod 1.5.10.3 | www.virtualdub-fr.org || (build 2550/release)
Writing library : VirtualDubMod build 2550/release
Video
ID : 0
Format : MPEG-4 Visual
Format profile : Advanced Simple@L5
Format settings, BVOP : 1
Format settings, QPel : No
Format settings, GMC : No warppoints
Format settings, Matrix : Custom
Codec ID : XVID
Codec ID/Hint : XviD
Duration : 1 h 46 min
Bit rate : 1 563 kb/s
Width : 720 pixels
Height : 304 pixels
Display aspect ratio : 2.35:1
Frame rate : 24.000 FPS
Color space : YUV
Chroma subsampling : 4:2:0
Bit depth : 8 bits
Scan type : Progressive
Compression mode : Lossy
Bits/(Pixel*Frame) : 0.298
Stream size : 1.17 GiB (80%)
Writing library : XviD 73
Audio
ID : 1
Format : AC-3
Format/Info : Audio Coding 3
Format settings, Endianness : Big
Codec ID : 2000
Duration : 1 h 46 min
Bit rate mode : Constant
Bit rate : 384 kb/s
Channel(s) : 6 channels
Channel positions : Front: L C R, Side: L R, LFE
Sampling rate : 48.0 kHz
Frame rate : 31.250 FPS (1536 spf)
Bit depth : 16 bits
Compression mode : Lossy
Stream size : 293 MiB (20%)
Alignment : Split accross interleaves
Interleave, duration : 42 ms (1.00 video frame)
Interleave, preload duratio : 500 ms
Service kind : Complete Main

Скриншоты

[cybertorrent.ru].t386.torrent 
Торрент: Зарегистрирован [ 2018-02-15 15:48 ] · 6F235E4F414742370A6DA92407620617789029EA

Скачать .torrent

Скачать

15 KB

Статус: проверено
Скачан: 0 раз
Размер: 1,46 GB
terms.php
Профиль [ЛС]
Показать сообщения:    

Текущее время: 19-Фев 05:54

Часовой пояс: UTC ± 0



Вы не можете начинать темы
Вы не можете отвечать на сообщения
Вы не можете редактировать свои сообщения
Вы не можете удалять свои сообщения
Вы не можете голосовать в опросах
Вы не можете прикреплять файлы к сообщениям
Вы можете скачивать файлы