Статистика раздачи
Размер:  1,46 GB   |    Зарегистрирован:  2 дня   |    Скачан:  0 раз

Полного источника не было: Никогда

 
   
 
 

lopster ®

Пол:
Не указан
Стаж:
3 дня
Сообщений:
509

Шакалы / Американское правосудие / Jackals / American Justice
Страна: США
Жанр: Боевик
Год выпуска: 1986
Продолжительность: 01:29:13
Перевод: Авторский (одноголосый закадровый) Сергей Визгунов
Субтитры: нет
Режиссер: Гари Грилло / Gary Grillo
В ролях: Джеймисон Паркер, Джек Лукарелли, Джералд МакРэйни, Уилфорд Бримли, Дженни Уилсон, Шерри Адамо, Billy C. Chandler, Роман Сиснерос, Роберт Коваррубиас, Розанна ДеСото
Описание: Полицейские небольшого американского города около мексиканской границы оказываются втянуты в коррупционную схему нелегального проникновения иммигрантов в США.
Доп. информация: Оцифровка VHS из коллекции RoxMarty
Спасибо JUSTKANT за активное участие.

Релиз
Сэмпл: https://yadi.sk/i/Mt25Nla93RzJL4
Качество видео: VHSRip
Формат видео: AVI
Видео: 704x544 (1.29:1), 25 fps, XviD build 73 ~2141 kbps avg, 0.22 bit/pixel
Аудио: 48 kHz, AC3 Dolby Digital, 2/0 (L,R) ch, ~192 kbps

MediaInfo

Американское правосудие (American justice) {VHS} {RoxMarty}.avi
Format : AVI
Format/Info : Audio Video Interleave
File size : 1.46 GiB
Duration : 1 h 29 min
Overall bit rate : 2 344 kb/s
Movie name : Американское правосудие (American justice) {VHS} {RoxMarty}
Director : by RoxMarty
Writing application : VirtualDubMod 1.5.10.3 | www.virtualdub-fr.org || (build 2550/release)
Copyright : Edich2
Comment : RuTracker.org
Video
ID : 0
Format : MPEG-4 Visual
Format profile : Advanced Simple@L5
Format settings, BVOP : 2
Format settings, QPel : No
Format settings, GMC : No warppoints
Format settings, Matrix : Custom
Codec ID : XVID
Codec ID/Hint : XviD
Duration : 1 h 29 min
Bit rate : 2 142 kb/s
Width : 704 pixels
Height : 544 pixels
Display aspect ratio : 1.294
Frame rate : 25.000 FPS
Color space : YUV
Chroma subsampling : 4:2:0
Bit depth : 8 bits
Scan type : Progressive
Compression mode : Lossy
Bits/(Pixel*Frame) : 0.224
Stream size : 1.33 GiB (91%)
Writing library : XviD 73
Audio
ID : 1
Format : AC-3
Format/Info : Audio Coding 3
Format settings, Endianness : Big
Codec ID : 2000
Duration : 1 h 29 min
Bit rate mode : Constant
Bit rate : 192 kb/s
Channel(s) : 2 channels
Channel positions : Front: L R
Sampling rate : 48.0 kHz
Frame rate : 31.250 FPS (1536 spf)
Bit depth : 16 bits
Compression mode : Lossy
Stream size : 123 MiB (8%)
Alignment : Split accross interleaves
Interleave, duration : 40 ms (1.00 video frame)
Interleave, preload duratio : 500 ms
Service kind : Complete Main

Скриншоты


[cybertorrent.ru].t4842.torrent 
Торрент: Зарегистрирован [ 2018-02-17 07:24 ] · 4042CCF2A8E205CEEB38861EE1E57143DC33A424

Скачать .torrent

Скачать

15 KB

Статус: проверено
Скачан: 0 раз
Размер: 1,46 GB
terms.php
Профиль [ЛС]
Показать сообщения:    

Текущее время: 19-Фев 07:51

Часовой пояс: UTC ± 0



Вы не можете начинать темы
Вы не можете отвечать на сообщения
Вы не можете редактировать свои сообщения
Вы не можете удалять свои сообщения
Вы не можете голосовать в опросах
Вы не можете прикреплять файлы к сообщениям
Вы можете скачивать файлы