Статистика раздачи
Размер:  2,63 GB   |    Зарегистрирован:  6 дней   |    Скачан:  0 раз

Полного источника не было: Никогда

 
   
 
 

patriot ®

Пол:
Не указан
Стаж:
7 дней
Сообщений:
160

Королевский двор: тайна заговора / Conspiracy in the court
Сеульская печальная песня / Seoul’s Sad Song
한성별곡 / Hansungbyulgok
-Оригинальное название: 한성별곡 / Hansungbyulgok
Английское название: Conspiracy in the court / Seoul’s Sad Song
Год выпуска: 2007
Страна: Южная Корея-Жанр: история, романтика, драма
Продолжительность: 8 серий по 60+ минут
Перевод: Субтитры
Режиссер: Kwak Jung Hwan («Chuno: Slave Hunter», «Fugitive: Plan B»)-В ролях:
Lee Cheon-Hee as Yang Man-Oh
Jin Yi-Han as Park Sang-Gyu
Kim Ha-Eun as Lee Na-Young
Ahn Nae-Sang as the King
Jung Ae-Ri as the Queen Dowager
Kim Eung-Soo as Park In-Bin
Kim Gi-Hyeon as Shim Min-Gu
Jang Hyun-Sung as Lee Jae-Han
Kim Myung-Soo as Butler Hwang
Han Jung-Soo as Seo Ju Pil

Описание: Ян Ман О - амбициозный торговец, готовый продать душу дьяволу ради того, чтобы создать новый мир для таких же простых людей, как он сам, и для своей любимой. Ли На Ён – дочь влиятельного министра, казненного по обвинению в государственной измене, желающая избавить этот мир от безжалостного человека, который поступил с ее семьей так несправедливо. Пак Сан Гю – незаконнорожденный сын высокопоставленного чиновника, занимающий незначительную должность в полиции. Он все еще слишком наивен, чтобы понять, насколько ужасное место – мир, окружающий его. В этой истории есть и король - реформатор, действительно любящий свой народ, но окруженный ненавидящими его царедворцами, которые никогда не позволят его новаторским идеям воплотиться в жизнь. Есть еще группа людей, которые считают, что только «кровопролитие может спасти нацию». Все это сплетется в тугой клубок, нитями которого будут любовь, политические интриги, кровь, тайные заговоры и просто люди, жившие в те времена.
Доп. информация: Любительские субтитры от Сёны
Исходная раздача--Качество видео: DVDRip
Формат: MP4
Видео кодек: H.264 PSP AVC
Аудио кодек: AAC
Видео: MPEG4 Video H.264 PSP AVC 480x272 512 kbps
Аудио: AAC 48000Hz stereo 128 Kbps

MediaInfo.txt

General
Complete name : D:\Film_фильм\Conspiracy In The Court\Conspiracy In The Court E01.mp4
Format : MPEG-4
Format profile : Base Media
Codec ID : isom
File size : 351 MiB
Duration : 1h 16mn
Overall bit rate mode : Variable
Overall bit rate : 644 Kbps
Encoded date : UTC 2014-01-07 08:03:20
Tagged date : UTC 2014-01-07 08:03:20
Video
ID : 1
Format : AVC
Format/Info : Advanced Video Codec
Format profile : Main@L3.0
Format settings, CABAC : Yes
Format settings, ReFrames : 3 frames
Codec ID : avc1
Codec ID/Info : Advanced Video Coding
Duration : 1h 16mn
Bit rate : 512 Kbps
Maximum bit rate : 4 815 Kbps
Width : 480 pixels
Height : 272 pixels
Display aspect ratio : 16:9
Frame rate mode : Constant
Frame rate : 29.970 fps
Color space : YUV
Chroma subsampling : 4:2:0
Bit depth : 8 bits
Scan type : Progressive
Bits/(Pixel*Frame) : 0.131
Stream size : 279 MiB (79%)
Writing library : x264 core 125 r2208 d9d2288
Encoding settings : cabac=1 / ref=3 / deblock=1:1:1 / analyse=0x1:0x131 / me=umh / subme=10 / psy=1 / psy_rd=1.00:0.00 / mixed_ref=1 / me_range=16 / chroma_me=1 / trellis=2 / 8x8dct=0 / cqm=0 / deadzone=21,11 / fast_pskip=0 / chroma_qp_offset=-2 / threads=1 / lookahead_threads=1 / sliced_threads=0 / nr=0 / decimate=1 / interlaced=0 / bluray_compat=0 / constrained_intra=0 / bframes=3 / b_pyramid=0 / b_adapt=2 / b_bias=0 / direct=3 / weightb=1 / open_gop=0 / weightp=2 / keyint=250 / keyint_min=25 / scenecut=40 / intra_refresh=0 / rc_lookahead=60 / rc=2pass / mbtree=1 / bitrate=512 / ratetol=1.0 / qcomp=0.70 / qpmin=0 / qpmax=69 / qpstep=4 / cplxblur=20.0 / qblur=0.5 / ip_ratio=1.40 / aq=1:0.60
Encoded date : UTC 2014-01-07 08:03:20
Tagged date : UTC 2014-01-07 08:03:49
Audio
ID : 2
Format : AAC
Format/Info : Advanced Audio Codec
Format profile : LC
Codec ID : 40
Duration : 1h 16mn
Bit rate mode : Variable
Bit rate : 128 Kbps
Maximum bit rate : 209 Kbps
Channel(s) : 2 channels
Channel positions : Front: L R
Sampling rate : 48.0 KHz
Compression mode : Lossy
Delay relative to video : 67ms
Stream size : 69.8 MiB (20%)
Encoded date : UTC 2014-01-07 08:03:46
Tagged date : UTC 2014-01-07 08:03:49

Эпизоды

Episode 01
Episode 02
Episode 03
Episode 04
Episode 05
Episode 06
Episode 07
Episode 08

Скриншоты

[cybertorrent.ru].t5461.torrent 
Торрент: Зарегистрирован [ 2018-02-17 18:00 ] · 5F16C65CE1732D56C9536E0F2CF3DD0915EFE19C

Скачать .torrent

Скачать

15 KB

Статус: проверено
Скачан: 0 раз
Размер: 2,63 GB
terms.php
Профиль [ЛС]
Показать сообщения:    

Текущее время: 24-Фев 06:02

Часовой пояс: UTC ± 0



Вы не можете начинать темы
Вы не можете отвечать на сообщения
Вы не можете редактировать свои сообщения
Вы не можете удалять свои сообщения
Вы не можете голосовать в опросах
Вы не можете прикреплять файлы к сообщениям
Вы можете скачивать файлы