Статистика раздачи
Размер:  839 MB   |    Зарегистрирован:  6 дней   |    Скачан:  0 раз

Полного источника не было: Никогда

Личеров:  1  [  0 KB/s  ]   Подробная статистика пиров
 
   
 
 

xenom ®

Пол:
Не указан
Стаж:
7 дней
Сообщений:
248

Dead Space Ignition
Год выпуска: 2017
Создатель видео: Никита «Brandon Heat» Хромов
Продолжительность: 00:37:14
Субтитры: русские, отключаемые
Язык озвучки : английский
Качество: HD
Формат: MKV
Информация о видео (кратко): AVC, 2501kbps, 1920x1080, 29.970fps
Информация о аудио (кратко): AC3 2.0, 48.0 KHz, 640 Kbps

Информация о видео (подробно)

Video
ID                          : 1
Format                      : AVC
Format/Info                 : Advanced Video Codec
Format profile              : High@L4.1
Format settings, CABAC      : Yes
Format settings, ReFrames   : 4 frames
Codec ID                    : V_MPEG4/ISO/AVC
Duration                    : 37 min 14 s
Bit rate                    : 2 501 kb/s
Width                       : 1 920 pixels
Height                      : 1 080 pixels
Display aspect ratio        : 16:9
Frame rate mode             : Constant
Frame rate                  : 29.970 (30000/1001) FPS
Color space                 : YUV
Chroma subsampling          : 4:2:0
Bit depth                   : 8 bits
Scan type                   : Progressive
Bits/(Pixel*Frame)          : 0.040
Stream size                 : 666 MiB (79%)
Title                       : Dead Space Ignition
Writing library             : x264 core 146 r2538 121396c
Encoding settings           : cabac=1 / ref=1 / deblock=1:0:0 / analyse=0x3:0x133 / me=umh / subme=11 / psy=1 / psy_rd=1.00:0.00 / mixed_ref=0 / me_range=24 / chroma_me=1 / trellis=2 / 8x8dct=1 / cqm=0 / deadzone=21,11 / fast_pskip=1 / chroma_qp_offset=-2 / threads=6 / lookahead_threads=1 / sliced_threads=0 / nr=0 / decimate=1 / interlaced=0 / bluray_compat=0 / constrained_intra=0 / bframes=2 / b_pyramid=2 / b_adapt=2 / b_bias=0 / direct=3 / weightb=1 / open_gop=0 / weightp=2 / keyint=15 / keyint_min=1 / scenecut=40 / intra_refresh=0 / rc_lookahead=15 / rc=2pass / mbtree=1 / bitrate=2501 / ratetol=1.0 / qcomp=0.60 / qpmin=0 / qpmax=69 / qpstep=4 / cplxblur=20.0 / qblur=0.5 / ip_ratio=1.40 / aq=1:1.00
Language                    : English
Default                     : Yes
Forced                      : Yes

Информация о аудио (подробно)

Audio
ID                          : 2
Format                      : AC-3
Format/Info                 : Audio Coding 3
Format settings, Endianness : Big
Codec ID                    : A_AC3
Duration                    : 37 min 14 s
Bit rate mode               : Constant
Bit rate                    : 640 kb/s
Channel(s)                  : 2 channels
Channel positions           : Front: L R
Sampling rate               : 48.0 kHz
Frame rate                  : 31.250 FPS (1536 spf)
Bit depth                   : 16 bits
Compression mode            : Lossy
Stream size                 : 170 MiB (20%)
Title                       : AC3 2.0 [Original]
Language                    : English
Service kind                : Complete Main
Default                     : Yes
Forced                      : Yes
Описание:
Вашему вниманию предлагается очередной игровой фильм по вселенной Dead Space, созданный на основе игры «Dead Space Ignition».
Сюжет разворачивается вокруг Франко Делайла, системного инженера на Спроуле. Вы увидите, что происходило за пару часов до того как он вытащит Айзека Кларка из отделения психиатрии в Dead Space 2.
Сюжет самой игры выстроен таким образом, что игрок может влиять на его дальнейшее развитие и, в зависимости от выбранного пути, возможны различные варианты сюжетных поворотов, которые ведут к уже известной всем концовке, но с разных ракурсов.
Во время монтажа я постарался использовать максимум сюжетных линий, а не какую-то одну, чтобы показать как можно больше истории.
Если вы играли в игру, то не удивляйтесь, что предфинальная часть сюжета была выбрана именно такой. Смысл был в том, чтобы показать, насколько сектант предан секте, ему не важны люди, сколь бы близки они ему ни были, «высшая» цель важнее. Также мы всегда жалеем Франко, когда он вытаскивает Айзека — хотелось показать оборотную сторону этой медали.
Приятного просмотра!

Доп.информация

Веб-версии, если кому-то интересно:
1. С русскими субтитрами, лежит тут: https://youtu.be/7Bd47xdS_ZU .
2. На английском языке, без субтитров, лежит тут: https://youtu.be/sRa_f9o3iFI .

Скриншоты

[cybertorrent.ru].t6181.torrent 
Торрент: Зарегистрирован [ 2018-02-18 00:07 ] · A4DDBA0923ED5A1E27AD523D0044063C07BD65B1

Скачать .torrent

Скачать

1 KB

Статус: проверено
Скачан: 0 раз
Размер: 839 MB
terms.php
Профиль [ЛС]
Показать сообщения:    

Текущее время: 24-Фев 06:08

Часовой пояс: UTC ± 0



Вы не можете начинать темы
Вы не можете отвечать на сообщения
Вы не можете редактировать свои сообщения
Вы не можете удалять свои сообщения
Вы не можете голосовать в опросах
Вы не можете прикреплять файлы к сообщениям
Вы можете скачивать файлы