Статистика раздачи
Размер:  1,1 GB   |    Зарегистрирован:  3 месяца 11 дней   |    Скачан:  0 раз

Полного источника не было: Никогда

 
   
 
 

Виктория ®

Пол:
Не указан
Стаж:
3 месяца 12 дней
Сообщений:
419

Как и думал, школьная романтика мне не светит 2 / OreGairu 2 / Yahari Ore no Seishun Love Comedy wa Machigatteiru 2
Страна: Япония
Год выпуска: 2015 г.
Жанр: комедия, романтика, драма
Тип: TV
Продолжительность: 13 эп, ~25 мин. серия
Режиссер: Ойкава Кэй
Студия: Feel-
  • Озвучка:
    одноголосая от Persona99 (женская)
    техподдержка: goodwing-Описание: Нелюдимый старшеклассник Хатиман Хикигая стронулся в развитии с мертвой точки… и запутался. Он считал себя циником – а стал помогать людям, думал, что неудачник – а удостоился внимания незаурядных девушек, мечтал спокойно дотянуть до конца школы – а покоя-то нет! Стоило приоткрыться – и личина изгоя треснула, теперь приходится разбираться с собственным «клубом служения» и двумя подругами, которые, в отличие от бедного парня, твердо знают, чего хотят!
    К счастью, у главного героя есть милая младшая сестренка, которая объяснила непутевому, что много брать на себя не надо – делай, что должно, и будь что будет. А надо всего-то обыграть на ее поле знатную манипуляторшу Харуно, вправить мозги местной принцессе Юкино, успокоить глупышку Юй и протолкнуть в президенты школьного Совета неуверенную в себе, но способную Ироху. Чего не сделаешь ради мира и спокойствия, а романтика – она подождет!
    © Hollow, World Art
    Качество: HDTVRip
    Тип релиза: Без хардсаба
    Формат видео: AVI
    Автор рипа:
    Видео: 704x396, 23.976 fps, XviD ~825 Kbps
    Аудио: Русская / 2 ch / AC-3 / 48 kHz / 192 Kbps / RUS(int) [озвучка: Persona99]
    Аудио 2: Японская / 2 ch / AC-3 / 48 kHz / 192 Kbps
    Субтитры: Перевод: Empty Редакция: Ryuji

Подробные тех. данные

Полное имя : C:\Users\goodwing\видео\аниме\OreGairu 2\Yahari Ore - 01.avi
Формат : AVI
Формат/Информация : Audio Video Interleave
Размер файла : 211 Мбайт
Продолжительность : 24 м.
Общий поток : 1224 Кбит/сек
Программа кодирования : VirtualDubModRus 1.5.10.2 (build 2542/release)
Библиотека кодирования : VirtualDubMod build 2542/release
Видео
Идентификатор : 0
Формат : MPEG-4 Visual
Профиль формата : Advanced Simple@L5
Параметр BVOP формата : 2
Параметр QPel формата : Нет
Параметр GMC формата : Без точки перехода
Параметр матрицы формата : Default (H.263)
Идентификатор кодека : XVID
Идентификатор кодека/Подсказка : XviD
Продолжительность : 24 м.
Битрейт : 825 Кбит/сек
Ширина : 704 пикселя
Высота : 396 пикселей
Соотношение сторон : 16:9
Частота кадров : 23,976 кадра/сек
Цветовое пространство : YUV
Субдискретизация насыщенности : 4:2:0
Битовая глубина : 8 бит
Тип развёртки : Прогрессивная
Метод сжатия : С потерями
Бит/(Пиксели*Кадры) : 0.123
Размер потока : 143 Мбайт (67%)
Библиотека кодирования : XviD 64
Аудио #1
Идентификатор : 1
Формат : AC-3
Формат/Информация : Audio Coding 3
Расширение режима : CM (complete main)
Параметр Endianness формата : Big
Идентификатор кодека : 2000
Продолжительность : 24 м.
Вид битрейта : Постоянный
Битрейт : 192 Кбит/сек
Каналы : 2 канала
Расположение каналов : Front: L R
Частота : 48,0 КГц
Битовая глубина : 16 бит
Метод сжатия : С потерями
Размер потока : 33,2 Мбайт (16%)
Выравнивание : Разделение по промежуткам
Продолжительность промежутка : 42 мс. (1,00 видеокадр)
Время предзагрузки промежутка : 500 мс.
Заголовок : Persona99
Аудио #2
Идентификатор : 2
Формат : AC-3
Формат/Информация : Audio Coding 3
Расширение режима : CM (complete main)
Параметр Endianness формата : Big
Идентификатор кодека : 2000
Продолжительность : 24 м.
Вид битрейта : Постоянный
Битрейт : 192 Кбит/сек
Каналы : 2 канала
Расположение каналов : Front: L R
Частота : 48,0 КГц
Битовая глубина : 16 бит
Метод сжатия : С потерями
Размер потока : 33,2 Мбайт (16%)
Выравнивание : Разделение по промежуткам
Продолжительность промежутка : 42 мс. (1,00 видеокадр)
Время предзагрузки промежутка : 500 мс.
Заголовок : Japanese

Список эпизодов

01. Никто не знает, что привело их в Клуб Волонтёров.
02. Его и её признание прозвучало впустую.
03. Сохраняйте тишину, Юкиносита Юкино принимает решение.
04. Итак, Юигахама Юи делает заявление.
05. В этой клубной комнате больше не витает аромат чая.

Отличия

http://cybertorrent.ru/viewtopic.php?t=4981870 - альтернативная озвучка

Скриншоты

Семпл https://yadi.sk/d/VAVN6feOgk6Fc
[cybertorrent.ru].t2332.torrent 
Торрент: Зарегистрирован [ 2018-02-16 11:35 ] · 06DB67520411C67F5F41645DFAFB15096076A2DB

Скачать .torrent

Скачать

12 KB

Статус: проверено
Скачан: 0 раз
Размер: 1,1 GB
Профиль [ЛС]
Показать сообщения:    

Текущее время: 28-Май 10:01

Часовой пояс: UTC ± 0



Вы не можете начинать темы
Вы не можете отвечать на сообщения
Вы не можете редактировать свои сообщения
Вы не можете удалять свои сообщения
Вы не можете голосовать в опросах
Вы не можете прикреплять файлы к сообщениям
Вы можете скачивать файлы