Статистика раздачи
Размер:  22,11 GB   |    Зарегистрирован:  2 дня 2 часа   |    Скачан:  0 раз

Полного источника не было: Никогда

Личеров:  1  [  0 KB/s  ]   Подробная статистика пиров
 
   
 
 

Domino ®

Пол:
Не указан
Стаж:
3 дня
Сообщений:
93

Доброе утро / Good Morning / OhayoCriterion Collection Страна: Япония
Студия: Shôchiku Eiga
Жанр: комедия, драма
Год выпуска: 1959
Продолжительность: 01:34:25
Перевод: Одноголосый закадровый О. Воротилин
Субтитры: русские, английские
Оригинальная аудиодорожка: японский
Режиссер: Ясудзиро Одзу / Yasujiro Ozu
В ролях: Кэйдзи Сада, Ёсико Куга, Тисю Рю, Кунико Миякэ, Харуко Сугимура, Кодзи Ситара, Масахико Симадзу, Кёуко Идзуми, Тоёко Такахаси, Садако Савамура, Эйдзиро Тоно, Тэруко Нагаока, Эйко Миёси, Харуо Танака, Акира Оидзуми, Фудзио Суга, Таидзи Тонояма и др.
Описание: Действие картины происходит в маленьких домах на окраинах Токио. Соседи бегают из дома в дом, ссорясь и распуская слухи, нахальные торговцы суют свой любопытный нос, пытаясь продать что-нибудь. В общем, сплошная суета. Братья Минору и Исаму обожают смотреть сумо по телевизору, но им приходится тайком ходить к соседям. По причине отказа родителей от покупки телевизора они объявляют забастовку.
-
Сэмпл IMDB Кинопоиск
-
Доп. информация:
Русские субтитры перебил на английский тайминг
Спонсоры озвучки - dmyan, porvaliparus
Тип релиза: BDRemux 1080p
Контейнер: MKV
Видео: AVC / 1920x1080 / 16:9 / 23.976 fps / 32213Kbps / High@L4.1
Аудио 1 Rus: AC3 / 48.0 KHz / 1.0 / 192 kbps / VO / О. Воротилин
Аудио 2 Rus: FLAC / 48.0 KHz / 1.0 / 613 kbps / 24 bit / VO / О. Воротилин
Аудио 3 Jap: FLAC / 48.0 KHz / 1.0 / 618 kbps / 24 bit
Формат субтитров: softsub (SRT)

MediaInfo

Общее
Уникальный идентификатор : 241088496256758063420497773964339839261 (0xB55FF49653E1745DFE3DF917A25A011D)
Полное имя : E:\porvaliparus.2018\Good.Morning.1959.Criterion.Collection-BDRemux.1080p.mkv
Формат : Matroska
Версия формата : Version 4 / Version 2
Размер файла : 22,1 Гбайт
Продолжительность : 1 ч. 34 м.
Режим общего битрейта : Переменный
Общий поток : 33,5 Мбит/сек
Название фильма : Good.Morning.1959.Criterion.Collection-BDRemux.1080p-porvaliparus
Дата кодирования : UTC 2018-01-29 14:36:21
Программа кодирования : mkvmerge v20.0.0 ('I Am The Sun') 64-bit
Библиотека кодирования : libebml v1.3.5 + libmatroska v1.4.8
Видео
Идентификатор : 1
Формат : AVC
Формат/Информация : Advanced Video Codec
Профиль формата : High@L4.1
Настройки формата : CABAC / 4 Ref Frames
Параметр CABAC формата : Да
Параметр RefFrames формата : 4 кадра
Идентификатор кодека : V_MPEG4/ISO/AVC
Продолжительность : 1 ч. 34 м.
Вид битрейта : Переменный
Битрейт : 32,1 Мбит/сек
Максимальный битрейт : 37,0 Мбит/сек
Ширина : 1920 пикселей
Высота : 1080 пикселей
Соотношение сторон : 16:9
Режим частоты кадров : Постоянный
Частота кадров : 23,976 (24000/1001) кадра/сек
Цветовое пространство : YUV
Субдискретизация насыщенности : 4:2:0
Битовая глубина : 8 бит
Тип развёртки : Прогрессивная
Бит/(Пиксели*Кадры) : 0.646
Размер потока : 21,2 Гбайт (96%)
Заголовок : Good.Morning.1959.Criterion.Collection-BDRemux.1080p
Default : Да
Forced : Нет
Аудио #1
Идентификатор : 2
Формат : AC-3
Формат/Информация : Audio Coding 3
Идентификатор кодека : A_AC3
Продолжительность : 1 ч. 34 м.
Вид битрейта : Постоянный
Битрейт : 192 Кбит/сек
Каналы : 1 канал
Расположение каналов : Front: C
Частота : 48,0 КГц
Частота кадров : 31,250 кадров/сек (1536 SPF)
Битовая глубина : 16 бит
Метод сжатия : С потерями
Размер потока : 130 Мбайт (1%)
Заголовок : VO [О. Воротилин]
Язык : Russian
ServiceKind/String : Complete Main
Default : Да
Forced : Нет
Аудио #2
Идентификатор : 3
Формат : FLAC
Формат/Информация : Free Lossless Audio Codec
Идентификатор кодека : A_FLAC
Продолжительность : 1 ч. 34 м.
Вид битрейта : Переменный
Битрейт : 613 Кбит/сек
Каналы : 1 канал
Расположение каналов : Front: C
Частота : 48,0 КГц
Частота кадров : 11,719 кадров/сек (4096 SPF)
Битовая глубина : 24 бит
Размер потока : 414 Мбайт (2%)
Заголовок : VO [О. Воротилин]
Библиотека кодирования : libFLAC 20080709 (UTC 2008-07-09)
Язык : Russian
Default : Нет
Forced : Нет
Аудио #3
Идентификатор : 4
Формат : FLAC
Формат/Информация : Free Lossless Audio Codec
Идентификатор кодека : A_FLAC
Продолжительность : 1 ч. 34 м.
Вид битрейта : Переменный
Битрейт : 618 Кбит/сек
Каналы : 1 канал
Расположение каналов : Front: C
Частота : 48,0 КГц
Частота кадров : 11,719 кадров/сек (4096 SPF)
Битовая глубина : 24 бит
Размер потока : 417 Мбайт (2%)
Библиотека кодирования : libFLAC 1.2.1 (UTC 2007-09-17)
Язык : Japanese
Default : Нет
Forced : Нет
Текст #1
Идентификатор : 5
Формат : UTF-8
Идентификатор кодека : S_TEXT/UTF8
Идентификатор кодека/Информация : UTF-8 Plain Text
Продолжительность : 1 ч. 33 м.
Битрейт : 71 бит/сек
ElementCount : 1045
Размер потока : 49,3 Кбайт (0%)
Язык : Russian
Default : Нет
Forced : Нет
Текст #2
Идентификатор : 6
Формат : UTF-8
Идентификатор кодека : S_TEXT/UTF8
Идентификатор кодека/Информация : UTF-8 Plain Text
Продолжительность : 1 ч. 33 м.
Битрейт : 37 бит/сек
ElementCount : 1026
Размер потока : 25,7 Кбайт (0%)
Язык : English
Default : Нет
Forced : Нет
Меню
00:00:00.000 : en:00:00:00.000
00:02:19.264 : en:00:02:19.264
00:07:27.530 : en:00:07:27.530
00:14:21.694 : en:00:14:21.694
00:17:05.650 : en:00:17:05.650
00:21:03.637 : en:00:21:03.637
00:24:14.286 : en:00:24:14.286
00:27:11.964 : en:00:27:11.964
00:35:12.652 : en:00:35:12.652
00:39:03.675 : en:00:39:03.675
00:46:21.862 : en:00:46:21.862
00:51:58.532 : en:00:51:58.532
00:55:46.343 : en:00:55:46.343
00:58:16.410 : en:00:58:16.410
01:01:42.991 : en:01:01:42.991
01:06:41.331 : en:01:06:41.331
01:10:19.006 : en:01:10:19.006
01:12:07.240 : en:01:12:07.240
01:15:22.101 : en:01:15:22.101
01:17:43.826 : en:01:17:43.826
01:24:40.033 : en:01:24:40.033
01:27:47.012 : en:01:27:47.012

Скриншоты


BDInfo исходника

DISC INFO:
Disc Title: Good Morning 1959 Criterion Collection Blu-ray 1080p AVC LPCM 1.0
Disc Size: 46 177 928 813 bytes
Protection: AACS
BD-Java: Yes
BDInfo: 0.5.8
PLAYLIST REPORT:
Name: 00001.MPLS
Length: 1:34:24.659 (h:m:s.ms)
Size: 25 674 860 544 bytes
Total Bitrate: 36,26 Mbps
VIDEO:
Codec Bitrate Description
----- ------- -----------
MPEG-4 AVC Video 32213 kbps 1080p / 23,976 fps / 16:9 / High Profile 4.1
AUDIO:
Codec Language Bitrate Description
----- -------- ------- -----------
LPCM Audio Japanese 1152 kbps 1.0 / 48 kHz / 1152 kbps / 24-bit
SUBTITLES:
Codec Language Bitrate Description
----- -------- ------- -----------
Presentation Graphics English 32,211 kbps
Presentation Graphics Chinese 19,311 kbps
Presentation Graphics Chinese 31,556 kbps
Presentation Graphics Chinese 20,163 kbps
[cybertorrent.ru].t3406.torrent 
Торрент: Зарегистрирован [ 2018-02-16 20:18 ] · 7CB1EF66F2D8CC48FA18BC731E0F9544358E0A24

Скачать .torrent

Скачать

56 KB

Статус: проверено
Скачан: 0 раз
Размер: 22,11 GB
terms.php
Профиль [ЛС]
Показать сообщения:    

Текущее время: 18-Фев 22:25

Часовой пояс: UTC ± 0



Вы не можете начинать темы
Вы не можете отвечать на сообщения
Вы не можете редактировать свои сообщения
Вы не можете удалять свои сообщения
Вы не можете голосовать в опросах
Вы не можете прикреплять файлы к сообщениям
Вы можете скачивать файлы