Статистика раздачи
Размер:  1,46 GB   |    Зарегистрирован:  3 месяца 11 дней   |    Скачан:  0 раз

Полного источника не было: Никогда

 
   
 
 

admin ®

Пол:
Не указан
Стаж:
3 месяца 13 дней
Сообщений:
28

Отступник / Romans
Страна: Великобритания
Жанр: драма
Год выпуска: 2017
Продолжительность: 01:32:19-Перевод: Профессиональный (многоголосый закадровый) | iTunes
Субтитры: нет
Оригинальная аудиодорожка: нет-Режиссер: Людвиг Шаммасян / Ludwig Shammasian, Пол Шаммасян / Paul Shammasian-В ролях: Орландо Блум, Джанет Монтгомери, Чарли Крид-Майлз, Энн Рейд, Джош Майерс, Дебора Рок, Алекс Фернс, Джо Уитли, Кайл Риис, Джеймс Смилли-Описание: Страхи прошлого неотступно преследует Малкольма: ещё ребёнком герой Орландо Блума получил сильнейшую психологическую травму. Больше двадцати лет гремучая смесь из терзаемых противоречий, оскорбления, непонимания, разочарования и отсутствия веры в Бога овладевают героем. Побороть себя и отпустить прошлое, не смотря на всепоглощающую жажду мести, не просто, но именно это предстоит пережить зрителям на равне с главным героем.-Качество видео: WEB-DLRip | ROMANS_WEB_DL_1080p-BLUEBIRD
Формат видео: AVIВидео: 720x304 (2.37:1), 24.000 fps, XviD build 73 ~1864 kbps avg, 0.35 bit/pixel
Аудио: 48 kHz, AC3 Dolby Digital, 3/2 (L,C,R,l,r) + LFE ch, ~384 kbps

MediaInfo

Код:Format : AVI
Format/Info : Audio Video Interleave
File size : 1.46 GiB
Duration : 1 h 32 min
Overall bit rate : 2 258 kb/s
Writing application : VirtualDubMod 1.5.10.3 | www.virtualdub-fr.org || (build 2550/release)
Writing library : VirtualDubMod build 2550/releaseVideo
ID : 0
Format : MPEG-4 Visual
Format profile : Advanced Simple@L5
Format settings : BVOP1 / Custom Matrix
Format settings, BVOP : 1
Format settings, QPel : No
Format settings, GMC : No warppoints
Format settings, Matrix : Custom
Codec ID : XVID
Codec ID/Hint : XviD
Duration : 1 h 32 min
Bit rate : 1 864 kb/s
Width : 720 pixels
Height : 304 pixels
Display aspect ratio : 2.35:1
Frame rate : 24.000 FPS
Color space : YUV
Chroma subsampling : 4:2:0
Bit depth : 8 bits
Scan type : Progressive
Compression mode : Lossy
Bits/(Pixel*Frame) : 0.355
Stream size : 1.20 GiB (83%)
Writing library : XviD 73Audio
ID : 1
Format : AC-3
Format/Info : Audio Coding 3
Codec ID : 2000
Duration : 1 h 32 min
Bit rate mode : Constant
Bit rate : 384 kb/s
Channel(s) : 6 channels
Channel positions : Front: L C R, Side: L R, LFE
Sampling rate : 48.0 kHz
Frame rate : 31.250 FPS (1536 SPF)
Bit depth : 16 bits
Compression mode : Lossy
Stream size : 254 MiB (17%)
Alignment : Split accross interleaves
Interleave, duration : 42 ms (1.00 video frame)
Interleave, preload duratio : 500 ms
Service kind : Complete Main

Скриншоты

[cybertorrent.ru].t3487.torrent 
Торрент: Зарегистрирован [ 2018-02-16 22:55 ] · 2B2325CDBDFBC3DFA42E72181299D2EDE9058604

Скачать .torrent

Скачать

15 KB

Статус: проверено
Скачан: 0 раз
Размер: 1,46 GB
Профиль [ЛС]
Показать сообщения:    

Текущее время: 28-Май 09:41

Часовой пояс: UTC ± 0



Вы не можете начинать темы
Вы не можете отвечать на сообщения
Вы не можете редактировать свои сообщения
Вы не можете удалять свои сообщения
Вы не можете голосовать в опросах
Вы не можете прикреплять файлы к сообщениям
Вы можете скачивать файлы