Статистика раздачи
Размер:  2,77 GB   |    Зарегистрирован:  3 месяца 9 дней   |    Скачан:  0 раз

Полного источника не было: Никогда

 
   
 
 

kex ®

Пол:
Не указан
Стаж:
3 месяца 11 дней
Сообщений:
324

Бумеранг. Анатолий Мартынов и его книга "Исповедимый путь"
Год выпуска: 1990-тые
Страна: Россия
Жанр: Телепередача
Продолжительность: 02:36:44
Перевод: Не требуется
Автор и ведущая: Татьяна Королева
Описание: Запись выпуска телепередачи из цикла "Бумеранг" о физике-парапсихологе, биоэнерготерапевте, поэте, философе, авторе книги "Исповедимый путь" Анатолие Васильевиче Мартынове.
Благодаря своим уникальным, феноменальным способностям, Анатолий Васильевич Мартынов в занимательной и доступной форме открыл нам великий мир. Не потусторонний мир Данте или Моуди, мир духовный. Даже, если мы поставим под вопрос научные объяснения многих феноменов, то сам факт их наличия в природе теперь уже не вызывает сомнений. Правда, повторяемость или воспроизводимость ряда малообъяснимых явлений невелика, но вполне достаточна при принятии их во внимание, как наукой, так и общества в целом.
Изложенные в книге А.В. Мартынова "Исповедимый путь" сведения не только новы и интересны, но позволяют человеку осознанно исключить для себя массовое оболванивание через телевизионный психотерроризм, другие виды массового целительства, которые опасны тем, что перекладывают ответственность с человека за свое состояние на какого-то постороннего врачевателя.
Но все-таки самое важное - это, конечно, мир доброты и истинной богочеловечности, к которой зовет автор. Хотя он известный экстрасенс, главная его мысль - духовное самосовершенствование человека.
Качество: VHSRip
Формат: MP4
Видео: AVC, 732x548 (4:3), 25.000 fps, x.264, 2300 Kbps, 0.229 bits/pixel
Аудио: AAC, 48.0 KHz, 224 Kbps, 2 ch

MediaInfo

General
Complete name : F:\Бумеранг, Мартынов, Исповедимый путь.mp4
Format : MPEG-4
Format profile : Base Media
Codec ID : isom (isom)
File size : 2.77 GiB
Duration : 2h 36mn
Overall bit rate mode : Variable
Overall bit rate : 2 528 Kbps
Encoded date : UTC 2016-02-10 21:53:50
Tagged date : UTC 2016-02-10 21:53:50
Video
ID : 1
Format : AVC
Format/Info : Advanced Video Codec
Format profile : High@L3
Format settings, CABAC : Yes
Format settings, ReFrames : 4 frames
Codec ID : avc1
Codec ID/Info : Advanced Video Coding
Duration : 2h 36mn
Bit rate : 2 300 Kbps
Maximum bit rate : 10.7 Mbps
Width : 732 pixels
Height : 548 pixels
Display aspect ratio : 4:3
Frame rate mode : Constant
Frame rate : 25.000 fps
Color space : YUV
Chroma subsampling : 4:2:0
Bit depth : 8 bits
Scan type : Progressive
Bits/(Pixel*Frame) : 0.229
Stream size : 2.52 GiB (91%)
Writing library : x264 core 148 r2638 7599210
Encoding settings : cabac=1 / ref=3 / deblock=1:-1:-1 / analyse=0x3:0x113 / me=hex / subme=7 / psy=1 / psy_rd=1.00:0.15 / mixed_ref=1 / me_range=16 / chroma_me=1 / trellis=1 / 8x8dct=1 / cqm=0 / deadzone=21,11 / fast_pskip=1 / chroma_qp_offset=-3 / threads=6 / lookahead_threads=1 / sliced_threads=0 / nr=0 / decimate=1 / interlaced=0 / bluray_compat=0 / constrained_intra=0 / bframes=2 / b_pyramid=2 / b_adapt=1 / b_bias=0 / direct=1 / weightb=1 / open_gop=0 / weightp=2 / keyint=120 / keyint_min=12 / scenecut=40 / intra_refresh=0 / rc_lookahead=40 / rc=2pass / mbtree=1 / bitrate=2300 / ratetol=1.0 / qcomp=0.60 / qpmin=0 / qpmax=69 / qpstep=4 / cplxblur=20.0 / qblur=0.5 / ip_ratio=1.40 / aq=1:1.00
Encoded date : UTC 2016-02-08 17:26:17
Tagged date : UTC 2016-02-10 21:54:40
Audio
ID : 2
Format : AAC
Format/Info : Advanced Audio Codec
Format profile : LC
Codec ID : 40
Duration : 2h 36mn
Bit rate mode : Variable
Bit rate : 224 Kbps
Maximum bit rate : 231 Kbps
Channel(s) : 2 channels
Channel positions : Front: L R
Sampling rate : 48.0 KHz
Frame rate : 46.875 fps (1024 spf)
Compression mode : Lossy
Stream size : 251 MiB (9%)
Encoded date : UTC 2016-02-10 20:28:48
Tagged date : UTC 2016-02-10 21:54:40

Скриншоты

[cybertorrent.ru].t3493.torrent 
Торрент: Зарегистрирован [ 2018-02-16 23:01 ] · C761107EA5E47E0374DAC18C6864B0F31A9C629C

Скачать .torrent

Скачать

14 KB

Статус: проверено
Скачан: 0 раз
Размер: 2,77 GB
Профиль [ЛС]
Показать сообщения:    

Текущее время: 26-Май 21:38

Часовой пояс: UTC ± 0



Вы не можете начинать темы
Вы не можете отвечать на сообщения
Вы не можете редактировать свои сообщения
Вы не можете удалять свои сообщения
Вы не можете голосовать в опросах
Вы не можете прикреплять файлы к сообщениям
Вы можете скачивать файлы