Статистика раздачи
Размер:  22,22 GB   |    Зарегистрирован:  3 месяца 12 дней   |    Скачан:  0 раз

Полного источника не было: Никогда

Личеров:  1  [  0 KB/s  ]  
 
   
 
 

kex ®

Пол:
Не указан
Стаж:
3 месяца 12 дней
Сообщений:
324

Квартирный вопрос. Выпуски 309, 338, 379 - 408
Год выпуска: 2011 - 2013
Страна: Россия, НТВ
Жанр: Тв-шоу
Продолжительность: ~ 00:50:00 / выпуск
Ведущие: Наталья Мальцева и Ольга Шульга.
Описание: Квартирный вопрос - передача о переустройстве квартир.
Доп. информация: 17 апреля 2013 года НТВ перешёл на формат показа 16/9. Поэтому картинка начиная с 379 выпуска анаморфно сжата по горизонтали, так же, как у ДВД с анаморфной картинкой и в широкоэкранном кино (это повышает качество - используется вся площадь кадра и итоговая картинка (после растяжения на ширину экрана) становится 1024/576, а не как в Леттербоксе 720/400), а в видео на студии перед передачей в эфир введена метка о растяжении на ширину экрана. Воспроизводится : в Windows - Media Player Classic и Real Player, в Android - MX Player, и аппаратными плеерами, работающих с H264, MP2 и TS.
Последнее обновление: 408 - 28 12 2013 - Кабинет, гостиная, спортзал
Остальные мои раздачи о ремонте:
Дачный ответ http://cybertorrent.ru/viewtopic.php?t=4418018
Идеальный ремонт http://cybertorrent.ru/viewtopic.php?t=4436650
качество: DVB
формат: TS
видеокодек: H.264
аудиокодек: MP2
Видео: AVC (H264) 720x576 25.00fps 1 775 Kbps
Аудио: MPEG Audio Layer 2 48000Hz stereo 128 Kbps

MediaInfo

General
ID : 1 (0x1)
Complete name : H:\Торрент\Мои раздачи\ТВ\НТВ\Квартирный вопрос\Квартирный вопрос\387 - 22 06 2013 - Весна в Скадинавии.ts
Format : MPEG-TS
File size : 697 MiB
Duration : 48mn 38s
Overall bit rate : 2 004 Kbps
Video
ID : 402 (0x192)
Menu ID : 4 (0x4)
Format : AVC
Format/Info : Advanced Video Codec
Format version : Version 2
Format profile : Main@L3.0
Format settings, CABAC : Yes
Format settings, ReFrames : 4 frames
Format settings, GOP : M=1, N=48
Codec ID : 27
Duration : 48mn 38s
Bit rate : 1 775 Kbps
Maximum bit rate : 1 900 Kbps
Width : 720 pixels
Height : 576 pixels
Display aspect ratio : 16:9
Frame rate : 25.000 fps
Standard : PAL
Color space : YUV
Chroma subsampling : 4:2:0
Bit depth : 8 bits
Scan type : Interlaced
Scan order : Top Field First
Bits/(Pixel*Frame) : 0.171
Stream size : 618 MiB (89%)
Color primaries : BT.470-6 System B, BT.470-6 System G, BT.601-6 625, BT.1358 625, BT.1700 625 PAL, BT.1700 625 SECAM
Transfer characteristics : BT.470-6 System B, BT.470-6 System G
Matrix coefficients : BT.470-6 System B, BT.470-6 System G, BT.601-6 625, BT.1358 625, BT.1700 625 PAL, BT.1700 625 SECAM, IEC 61966-2-4 601
Audio
ID : 403 (0x193)
Menu ID : 4 (0x4)
Format : MPEG Audio
Format version : Version 1
Format profile : Layer 2
Codec ID : 4
Duration : 48mn 38s
Bit rate mode : Constant
Bit rate : 128 Kbps
Maximum bit rate : 131 Kbps
Channel(s) : 1 channel
Sampling rate : 48.0 KHz
Compression mode : Lossy
Delay relative to video : 191ms
Stream size : 44.5 MiB (6%)
Language : Russian
Menu
ID : 401 (0x191)
Menu ID : 4 (0x4)
Duration : 48mn 38s
List : 402 (0x192) (AVC) / 403 (0x193) (MPEG Audio, Russian)
Language : / Russian
Maximum bit rate : 2107200

Список выпусков

309 - 10 09 2011 - Бетон вместо зебры

Содержание

Екатерина и Алексей Анохины жили в состоянии ремонта. Например, гостиную они успели оклеить обоями под зебру. Однако «Квартирный вопрос» вместе с дизайнером Миллой Резановой предложил для отделки стен еще более радикальное – и брутальное – решение. Ведущая - Наталья Мальцева.

Скриншоты

338 - 21 04 2012 - Пузыри и бумеранги

Содержание

Для двух молодых людей дизайнер Михаил Новинский создал поистине космический проект. Одну из стен покрыли эффектные 3D-панели с «пузырями». А в формах мебели, светильники и элементов отделки угадываются очертания бумерангов. Ведущая - Наталья Мальцева.

Скриншоты

379 - 20 04 2013 - Синий камин и шкаф обманка

Содержание

Гостиную дружной семьи Седовых Ольга Куликовская переделает так, что и хозяева, и их многочисленные гости будут чувствовать себя абсолютно комфортно. Центром комнаты станет камин с ласковым пламенем, а вся посуда займет свое место в шкафах-обманках. Ведущая - Ольга Шульга.

Скриншоты

380 - 27 04 2013 - Металл и фанера

Содержание

Алексей Розенберг объединил кухню, коридор и комнату семьи Сидоровых архитектурной идеей простых форм и матералов, создающих единое и очень необычное пространство. В нем правят бал металл, фанера и керамогранит.. Ведущая - Наталья Мальцева.

Скриншоты

381 - 11 05 2013 - Спальня с клубком и чайниками

Содержание

Дизайнер Екатерина Грачёва посвятит свою переделку всем семьям, прошедшим суровую школу выживания в малометражках с двумя маленькими детьми. Спальню в новой квартире Евгении и Максима Мироновых она превратит в идеальный мир для двоих. Ведущая - Ольга Шульга.

MediaInfo

General
ID : 1 (0x1)
Complete name : H:\Торрент\Мои раздачи\ТВ\НТВ\Квартирный вопрос\Квартирный вопрос\381 - 11 05 2013 - Спальня с клубком и чайниками.ts
Format : MPEG-TS
File size : 711 MiB
Duration : 48mn 31s
Overall bit rate : 2 049 Kbps
Video
ID : 402 (0x192)
Menu ID : 4 (0x4)
Format : AVC
Format/Info : Advanced Video Codec
Format version : Version 2
Format profile : Main@L3.0
Format settings, CABAC : Yes
Format settings, ReFrames : 4 frames
Format settings, GOP : M=1, N=48
Codec ID : 27
Duration : 48mn 31s
Bit rate : 1 818 Kbps
Maximum bit rate : 1 951 Kbps
Width : 720 pixels
Height : 576 pixels
Display aspect ratio : 16:9
Frame rate : 25.000 fps
Standard : PAL
Color space : YUV
Chroma subsampling : 4:2:0
Bit depth : 8 bits
Scan type : Interlaced
Scan order : Top Field First
Bits/(Pixel*Frame) : 0.175
Stream size : 631 MiB (89%)
Color primaries : BT.470-6 System B, BT.470-6 System G, BT.601-6 625, BT.1358 625, BT.1700 625 PAL, BT.1700 625 SECAM
Transfer characteristics : BT.470-6 System B, BT.470-6 System G
Matrix coefficients : BT.470-6 System B, BT.470-6 System G, BT.601-6 625, BT.1358 625, BT.1700 625 PAL, BT.1700 625 SECAM, IEC 61966-2-4 601
Audio
ID : 403 (0x193)
Menu ID : 4 (0x4)
Format : MPEG Audio
Format version : Version 1
Format profile : Layer 2
Codec ID : 4
Duration : 48mn 31s
Bit rate mode : Constant
Bit rate : 128 Kbps
Maximum bit rate : 131 Kbps
Channel(s) : 1 channel
Sampling rate : 48.0 KHz
Compression mode : Lossy
Delay relative to video : 90ms
Stream size : 44.4 MiB (6%)
Language : Russian
Menu
ID : 401 (0x191)
Menu ID : 4 (0x4)
Duration : 48mn 31s
List : 402 (0x192) (AVC) / 403 (0x193) (MPEG Audio, Russian)
Language : / Russian
Maximum bit rate : 2158000

Скриншоты

382 - 18 05 2013 - Музыка в геометрии

Содержание

Музыканты Александр и Людмила Панюковы живут в типовой квартире. Но Элен и Майкл Мирошкины создадут для них совсем не типовой, интеллектуальный и геометрически осмысленный интерьер, в котором почти не будет прямых линий и углов. А в отделке дизайнеры применят новый, необычный и очень дружелюбный природе материал. Ведущая - Наталья Мальцева.

Скриншоты

383 - 25 05 2013 - Зебра в жемчугах

Содержание

На жемчужную свадьбу Надежды и Валерия Малаевых дизайнер Светлана Герцен переделает обычную комнату в спальню-гостиную-оранжерею-рабочий кабинет – с «зеброй» на полу, экспрессионизмом на стене и алмазной гранью на шкафах. Ведущая - Наталья Мальцева.

Скриншоты

[

384 - 01 06 2013 - Кухня с иллюминатором

Содержание

Чтобы найти ответ на квартирный вопрос семьи Рогатневых, Наталья Баженова сначала объединит кухню, комнату и коридор в единое пространство – а потом поделит его необычной исчезающей перегородкой. А отправной точкой для цветовой гаммы и стиля станет море: например, вытяжка спрячется за декоративным иллюминатором. Ведущая - Наталья Мальцева.

Скриншоты

385 - 08 06 2013 - Игра в шахматы

Содержание

Переделывая кухню семьи ученых-астрофизиков, Жюльетта Ситникова будто разыграет партию в шахматы, но ассоциативные: черное и белое, светлое и темное... А шахматные клеточки на обеденном столе будут, напротив, не контрастными, а из разных пород дерева, инкрустированные в технике маркетри. Ведущая - Наталья Мальцева.

Скриншоты

386 - 15 06 2013 - Вишнёвый сад

Содержание

Взяв за основу стиль русской усадьбы, Варвара Зеленецкая создаст интерьер спальни-гостиной, вдохновленный чеховскими образами: имение, белые цветы, ускользающий аромат цветущей вишни, антикварные или состаренные фактуры, скрытый от глаз кабинет, изящная тумба-оранжерея за диваном и нелакированное черешневое дерево в отделке. Ведущая - Ольга Шульга.

Скриншоты

387 - 22 06 2013 - Весна в Скадинавии

Содержание

Героиня этой переделки Саша Кондрашова – увлеченная творческая девушка: учится на психолога, поет. Для нее дизайнер Екатерина Шабалина создаст функциональный, романтический и, конечно же, музыкальный интерьер, в основу которого ляжет скандинавский стиль и яркий травяной зеленый цвет. Ведущая - Ольга Шульга.

Скриншоты

388 - 29 06 2013 - Спальня с беседкой

Содержание

Анастасия Панибратова объединила лоджию и спальню героев китайской беседкой, которая стала главным элементом легкого, как порхающая бабочка, интерьера, выдержанного в стиле шинуазри. Ведущая - Ольга Шульга.

Скриншоты

389 - 06 07 2013 - Кухня с оптическим обманом

Содержание

Оптические иллюзии позволили Александре Фёдоровой превратить типовую кухню в многослойное пространство. Лаконичный и респектабельный интерьер, одинаково комфортный для всех поколений семьи Якубовых. Ведущая - Ольга Шульга.

Скриншоты

390 - 13 07 2013 - Жуки под водопадом

Содержание

Михаил Новинский в буквальном смысле развернул интерьер гостиной к человеку и создал похожую на театр композицию – с партером и амфитеатром. А яркими деталями стали настоящие африканские жуки и декоративный водопад. Ведущая - Ольга Шульга.

Скриншоты

391 - 31 08 2013 - Цветущая детская с качелями

Содержание

Детская для четырехлетней Юли и девятилетней Саши с легкой руки Юлии Маркос превратилась в беседку в цветущем саду, а лоджия – в яркую художественную мастерскую. Ведущая - Ольга Шульга.

Скриншоты

392 - 07 09 2013 - Гостиная с холстами

Содержание

Переделывая гостиную для семейства Пакулиных, Антон и Марина Фруктовы возьмут героев в соавторы. В новом интерьере, современном, но с богатой лепниной и наборным паркетом, появятся три холста. Два из них в дальнейшнем смогут расписать герои, а один архитекторы возьмут на себя и спрячут за ним... аквариум и телевизор! Ведущая - Ольга Шульга.

Скриншоты

393 - 14 09 2013 - Брутальная кухня

Содержание

Архитектор Андрей Волков уверен, что функционализм может быть прекрасен – особенно, если сопрягается с теплыми текстурами и свежими красками. Именно в таком сбалансированном стиле он переделал типовую кухню семьи Шабалковых. Ведущая - Наталья Мальцева.

Скриншоты

394 - 21 09 2013 - Раз дощечка, два дощечка

Содержание

Обычную детскую двух школьников Марина Ляутер переделала в комнату-трансформер. В ней появились и мобильные столы, и кровать-слайдер, и небольшой скалодром.Чем не мальчишечье счастье? Ведущая - Ольга Шульга.

Скриншоты

395 - 28 09 2013 - Безграничная нежность

Содержание

Вдохновившись солнцем, свежестью, свободой и нежностью, Ольга Суркова создала для двух героинь, привыкших выходить победительницами из самых сложных ситуаций, максимально удобный и приспособленный для них интерьер кухни-гостиной. Ведущая - Ольга Шульга.

Скриншоты

396 - 05 10 2013 - Ай да Пушкин!

Содержание

Вероника Андрихова очень деликатно вплела пушкинскую тему в кухонный интерьер. Никаких прямых ассоциаций. Только нюансы, намеки и полутона, которые, тем не менее, идеально передают изысканный флёр самой поэтической русской эпохи. Ведущая - Ольга Шульга.

Скриншоты

397 - 12 10 2013 - Бетон или стекло

Содержание

Самым необычным элементом гостиной по проекту Григория Казначеева стала светящаяся стеклянная стена, которая нажатием одной кнопки мгновенно открывает всю естественную красоту бетона. Ведущая - Наталья Мальцева.

Скриншоты

398 - 19 10 2013 - Кухня с чёрным квадратом

Содержание

Кухня у Веры Казаченковой получилась дерзкая, яркая, смелая и хорошо организованная. Настоящий объект актуального искусств чем-то похожий на своих молодых, успешных и амбициозных хозяев. Ведущая - Ольга Шульга.

Скриншоты

399 - 26 10 2013 - Кровать при луне

Содержание

В спальне Андрея Горожанкина кровать из «твердого воздуха» будто взлетела над полом. А «цветущие поля» покрывала и луна настроили молодых на романтическо-космический лад. Чистый эксперимент. Такого еще не было. Ведущая - Наталья Мальцева.

Скриншоты

400 - 02 11 2013 - Геометрия стихий

Содержание

Гармонично объединить множество функций – задача не из легких: спальня, рабочий кабинет, гостиная, спортзал. Но для счастливой молодой пары, куда важнее мимолетное прикосновение чувственности, которое вызовет футуристически-модный, радостный и очень удобный интерьер. Ведущая - Наталья Мальцева.

Скриншоты

401 - 09 11 2013 - Кухня в клеточку

Содержание

Сергей Колчин и Анастасия Чернышова переделали кухню в актуальном направлении: «дизайн на грани искусства». Они ушли от традиционного деления на «верх» и «низ», сделали почти все поверхности рельефными, а в золотых нишах разместили скульптуры. Ведущая - Наталья Мальцева.

Скриншоты

[url=http://fastpic.ru/view/59/2013/1109/1109c5aeaa31fcdb1698ed5ed98d2189.
[cybertorrent.ru].t1563.torrent 
Торрент: Зарегистрирован [ 2018-02-16 08:13 ] · E18EBE05DA2763B470C81FB21E4121A78960B43B

Скачать .torrent

Скачать

59 KB

Статус: проверено
Скачан: 0 раз
Размер: 22,22 GB
Профиль [ЛС]
Показать сообщения:    

Текущее время: 28-Май 10:00

Часовой пояс: UTC ± 0



Вы не можете начинать темы
Вы не можете отвечать на сообщения
Вы не можете редактировать свои сообщения
Вы не можете удалять свои сообщения
Вы не можете голосовать в опросах
Вы не можете прикреплять файлы к сообщениям
Вы можете скачивать файлы