Статистика раздачи
Размер:  1,23 GB   |    Зарегистрирован:  4 дня   |    Скачан:  0 раз

Полного источника не было: Никогда

 
   
 
 

kex ®

Пол:
Не указан
Стаж:
6 дней
Сообщений:
179

Алиса / Lucy, Captain America: The Winter Soldier (2017) HDRip
Год выпуска: 2017
Страна: Франция, США
Жанр: альтернативный перевод, фантастика, триллер
Продолжительность: 01:17:24
Перевод: любительский многоголосый (альтерантивный перевод Сержио Фальконе)
Режиссер: Люк Бессон, Сержио Фальконе
В ролях: Скарлетт Йоханссон, Морган Фриман, Чхве Мин-сик, Амр Вакед, Джулиан Райнд-Татт, Йохан Филип Асбек, Анали Типтон, Николас Фонгфет, Ян Оливер Шрёдер, Лука Анджелетти
Описание:
Это история Алисы Кэролл. Обычной девушки, ищущей свое место в мире. Но нашедшей мир, нуждающийся в ней.
Семпл
Примечание автора раздачи:
Видеоряд монтажный, собран из многих фильмов с участием Скарлетт Йоханссон.
"Алиса" входит во вселенную "Чистомыслие" от Сержио Фальконе, включающую также сериалы "Магнолия" и "М2: Сеть".
Файл
Кодек: XviD
Качество: HDRip
Видео: 720x304 (2.37:1), 23.976 fps, XviD build 64 ~2078 kbps avg, 0.40 bit/pixel
Звук: 48 kHz, MPEG Layer 3, 2 ch, ~192.00 kbps avg

MediaInfo

General
Complete name : E:\___фильмы\Alisa.2017.HDRip.avi
Format : AVI
Format/Info : Audio Video Interleave
File size : 1.23 GiB
Duration : 1h 17mn
Overall bit rate : 2 280 Kbps
Video
ID : 0
Format : MPEG-4 Visual
Format profile : AdvancedSimple@L5
Format settings, BVOP : Yes
Format settings, QPel : No
Format settings, GMC : No warppoints
Format settings, Matrix : Default (MPEG)
Codec ID : XVID
Codec ID/Hint : XviD
Duration : 1h 17mn
Bit rate : 2 079 Kbps
Width : 720 pixels
Height : 304 pixels
Display aspect ratio : 2.35:1
Frame rate : 23.976 fps
Resolution : 24 bits
Colorimetry : 4:2:0
Scan type : Progressive
Bits/(Pixel*Frame) : 0.396
Stream size : 1.12 GiB (91%)
Writing library : XviD 64
Audio
ID : 1
Format : MPEG Audio
Format version : Version 1
Format profile : Layer 3
Codec ID : 55
Codec ID/Hint : MP3
Duration : 1h 17mn
Bit rate mode : Constant
Bit rate : 192 Kbps
Channel(s) : 2 channels
Sampling rate : 48.0 KHz
Resolution : 16 bits
Stream size : 106 MiB (8%)
Alignment : Split accross interleaves
Interleave, duration : 42 ms (1.00 video frame)
Writing library : LAMELAME_MAJOR_VERSI

Скриншоты

[cybertorrent.ru].t3897.torrent 
Торрент: Зарегистрирован [ 2018-02-17 01:52 ] · 5FBE41BAF7BD2999571428D53C68CBB2CFE43110

Скачать .torrent

Скачать

13 KB

Статус: проверено
Скачан: 0 раз
Размер: 1,23 GB
terms.php
Профиль [ЛС]
Показать сообщения:    

Текущее время: 21-Фев 21:03

Часовой пояс: UTC ± 0



Вы не можете начинать темы
Вы не можете отвечать на сообщения
Вы не можете редактировать свои сообщения
Вы не можете удалять свои сообщения
Вы не можете голосовать в опросах
Вы не можете прикреплять файлы к сообщениям
Вы можете скачивать файлы