Статистика раздачи
Размер:  16,92 GB   |    Зарегистрирован:  2 дня 5 часов   |    Скачан:  0 раз

Полного источника не было: Никогда

 
   
 
 

Избранец ®

Пол:
Не указан
Стаж:
4 дня
Сообщений:
141

Теория Большого Взрыва / The Big Bang Theory Год выпуска: 2011-2012
Страна: США
Жанр: ситком
Продолжительность: ~ 22 минуты серия
Перевод: профессиональный многоголосый закадровый (BBC Saint-Petersburg)
Оригинальная дорожка: английская
Русские субтитры: нет
Субтитры: нет
Режиссёр: Марк Сендроуски
В ролях: Джонни Галекки, Джим Парсонс, Кейли Куоко, Саймон Хельберг, Кунал Найяр
Описание: Два блестящих физика, Леонард и Шелдон, «великие умы», которые понимают как «работает вселенная». Но их гениальность ничуть не помогает им общаться с людьми, особенно с женщинами. Всё начинает меняться, когда напротив них поселяется красавица Пенни.
Когда Леонард и Шелдон встречают Пенни, Леонард сразу же начинает интересоваться ею. Он видит в общении с Пенни огромную перспективу… вплоть до любви, однако Шелдон понимает, что мечтам его друга не суждено сбыться.
Стоит также отметить пару странных друзей этих физиков: Воловиц, который любит употреблять фразы на разных языках, включая русский, и Раджеш Кутраппали, теряющий дар речи при виде женщин.

Ссылка на предыдущие и альтернативные раздачи: http://rutracker.org/forum/tracker.php?nm=the+big+bang+theory
Сэмпл
Качество: WEB-DL 720p
Формат: MKV
Видео кодек: H.264
Аудио кодек: AC3
Видео: AVC High@L3.1 1280 x 720 4016 kbps 23.976fps 0.182Bits/Pixel
Аудио: RUS: AC3 48000Hz 6 каналов 384Kbps
Аудио 2: ENG: AC3 48000Hz 6 каналов 384Kbps- специально для -

MI

General
Unique ID : 177019062105058558504995260102085205382 (0x852CA1992D58C97BB523B8221B885D86)
Complete name : The.Big.Bang.Theory.s05e01.HD720p.WEB-DL.Rus-Eng.BaibaKo.tv.mkv
Format : Matroska
Format version : Version 2
File size : 743 MiB
Duration : 21mn 32s
Overall bit rate : 4 820 Kbps
Movie name : big-movie.ru presents - Теория большого взрыва 5x01
Encoded date : UTC 2012-06-04 11:40:49
Writing application : mkvmerge v5.4.0 ('Piper') built on Mar 10 2012 13:34:39
Writing library : libebml v1.2.3 + libmatroska v1.3.0
Video
ID : 1
Format : AVC
Format/Info : Advanced Video Codec
Format profile : High@L3.1
Format settings, CABAC : No
Format settings, ReFrames : 2 frames
Codec ID : V_MPEG4/ISO/AVC
Duration : 21mn 32s
Bit rate : 3 956 Kbps
Width : 1 280 pixels
Height : 720 pixels
Display aspect ratio : 16:9
Frame rate : 23.976 fps
Color space : YUV
Chroma subsampling : 4:2:0
Bit depth : 8 bits
Scan type : Progressive
Bits/(Pixel*Frame) : 0.179
Stream size : 610 MiB (82%)
Language : English
Default : Yes
Forced : No
Color primaries : BT.709-5, BT.1361, IEC 61966-2-4, SMPTE RP177
Transfer characteristics : BT.709-5, BT.1361
Matrix coefficients : BT.709-5, BT.1361, IEC 61966-2-4 709, SMPTE RP177
Audio #1
ID : 2
Format : AC-3
Format/Info : Audio Coding 3
Mode extension : CM (complete main)
Codec ID : A_AC3
Duration : 21mn 32s
Bit rate mode : Constant
Bit rate : 384 Kbps
Channel(s) : 6 channels
Channel positions : Front: L C R, Side: L R, LFE
Sampling rate : 48.0 KHz
Bit depth : 16 bits
Compression mode : Lossy
Stream size : 59.2 MiB (8%)
Title : Rus BaibaKo.tv DD5.1
Language : Russian
Default : Yes
Forced : No
Audio #2
ID : 3
Format : AC-3
Format/Info : Audio Coding 3
Mode extension : CM (complete main)
Codec ID : A_AC3
Duration : 21mn 32s
Bit rate mode : Constant
Bit rate : 384 Kbps
Channel(s) : 6 channels
Channel positions : Front: L C R, Side: L R, LFE
Sampling rate : 48.0 KHz
Bit depth : 16 bits
Compression mode : Lossy
Stream size : 59.2 MiB (8%)
Title : Eng DD5.1
Language : English
Default : No
Forced : No

Скриншоты

-- Как закачать отдельный файл из торрента или докачать ранее пропущенные файлы торрента! -

Внимание! Раздача ведётся путём добавления новых серий!

Внимание! Раздача ведётся путём добавления новых серий; при каждом добавлении создётся новый торрент. Чтобы начать докачку новой серии, пользователям необходимо сделать следующее:
(1) остановить скачивание,
(2) удалить старый торрент у себя из клиента (старые серии удалять не надо),
(3) скачать новый торрент и запустить его у себя в клиенте вместо старого, при этом указать клиенту путь в старую папку куда и должно происходить скачивание новых серий.
Ваш клиент при этом должен произвести хеширование (проверку) старой папки (если не производит сам - помогите ему сделать это), и будет докачивать только те серии которых у вас ещё нет. Старые серии при этом не удаляются, а продолжают раздаваться!
Eсли вы уже удалили старые серии, то предотвратить повторную закачку старых серий можно, отжав галочку в соответсвующих местах при запуске нового торрента.
-Добавлены 19-24 серии (ПОЛНЫЙ 5-ый СЕЗОН). 25.07.2012--
[cybertorrent.ru].t8058.torrent 
Торрент: Зарегистрирован [ 2018-02-18 23:20 ] · 4CE292B6F8C89E94C128F26B1746E39FB72FF441

Скачать .torrent

Скачать

87 KB

Статус: проверено
Скачан: 0 раз
Размер: 16,92 GB
terms.php
Профиль [ЛС]
Показать сообщения:    

Текущее время: 21-Фев 04:44

Часовой пояс: UTC ± 0



Вы не можете начинать темы
Вы не можете отвечать на сообщения
Вы не можете редактировать свои сообщения
Вы не можете удалять свои сообщения
Вы не можете голосовать в опросах
Вы не можете прикреплять файлы к сообщениям
Вы можете скачивать файлы