Статистика раздачи
Размер:  28,45 GB   |    Зарегистрирован:  2 месяца 2 дня   |    Скачан:  0 раз

Полного источника не было: Никогда

Личеров:  10  [  0 KB/s  ]  
 
   
 
 

O_O ®

Пол:
Не указан
Стаж:
2 месяца 5 дней
Сообщений:
223

Декстер / Dexter
Год выпуска: 2010
Страна: США
Жанр: драма, криминал, триллер
Продолжительность: ~53 мин
Перевод: Профессиональный многоголосый закадровый NovaFilm
Перевод 2: Профессиональный многоголосый закадровый FoxCrime
Субтитры: Русские (truetranslate), Английские
Режиссёр: Маркос Сига (Marcos Siega), Тим Хантер (Tim Hunter), Кит Гордон (Keith Gordon)
В ролях: Майкл Холл, Джули Бенц, Дженифер Карпентер, Эрик Кинг, Лорен Велез, Дэвид Зайяс, Джеймс Ремар, Кристина Робинсон, Дэниэл Голдман

Описание: Я — Декстер. Декстер Морган. Я работаю судмедэкспертом в полиции Майами. Я не понимаю любви, мне безразличен секс, и у меня нет чувств. А еще я серийный убийца.
Мой отец был полицейским, и прекрасно обучил меня прятать улики. Обычным гражданам не стоит меня бояться, я убиваю только преступников, подонков, до которых почему-либо не смогла или не захотела добраться полиция. Я убиваю их, аккуратно распиливаю на части, и избавляюсь от трупов. Убийство для меня — творческий акт, искусство.
Но однажды... В Майами появляется некто, равный мне. Даже превзошедший меня. Сумевший меня заинтересовать. Предложивший мне своего рода товарищеское состязание. Кто этот загадочный и неуловимый «икс»...?
Сэмпл: http://multi-up.com/1090450
Качество: BDRip 720p
Формат: MKV
Видео кодек: H.264
Аудио кодек: AC3
Видео: H.264, 1280x720, 23.976 fps, 5520 kbps, 0.25 bit/pixel
Аудио: Русский, NovaFiLM AC3 5.1 48.0 KHz, 448/384 kbps
Аудио 2: Русский, FoxCrime AC3 2.0 48.0 KHz, 192 kbps
Аудио 3: English AC3 48.0 KHz, 5.1 ch 448 kbps

MI

General
Unique ID : 249231782168693046922299220339454126141 (0xBB804B94A9BE4658A590CD49AEA4283D)
Complete name : H:\трекер\Dexter.s5.BDRip.720p\Dexter.s05e01.My.Bad.mkv
Format : Matroska
Format version : Version 4 / Version 2
File size : 2.52 GiB
Duration : 54mn 30s
Overall bit rate : 6 613 Kbps
Movie name : Dexter.s05e01.My.Bad (BDRip.720p) -B@ZILI0-
Encoded date : UTC 2016-02-22 17:54:42
Writing application : mkvmerge v8.8.0 ('Wind at my back') 64bit
Writing library : libebml v1.3.3 + libmatroska v1.4.4
Cover : Yes
Attachments : cover.png
Video
ID : 1
Format : AVC
Format/Info : Advanced Video Codec
Format profile : High@L4
Format settings, CABAC : Yes
Format settings, ReFrames : 9 frames
Codec ID : V_MPEG4/ISO/AVC
Duration : 54mn 30s
Bit rate : 5 521 Kbps
Width : 1 280 pixels
Height : 720 pixels
Display aspect ratio : 16:9
Frame rate mode : Constant
Frame rate : 23.976 (24000/1001) fps
Color space : YUV
Chroma subsampling : 4:2:0
Bit depth : 8 bits
Scan type : Progressive
Bits/(Pixel*Frame) : 0.250
Stream size : 2.10 GiB (83%)
Title : Dexter.s05e01.My.Bad (BDRip.720p) -B@ZILI0-
Writing library : x264 core 125 r2200 999b753
Encoding settings : cabac=1 / ref=9 / deblock=1:-2:-2 / analyse=0x3:0x133 / me=umh / subme=11 / psy=1 / psy_rd=1.00:0.15 / mixed_ref=1 / me_range=32 / chroma_me=1 / trellis=2 / 8x8dct=1 / cqm=0 / deadzone=21,11 / fast_pskip=0 / chroma_qp_offset=-3 / threads=6 / lookahead_threads=1 / sliced_threads=0 / nr=0 / decimate=1 / interlaced=0 / bluray_compat=0 / constrained_intra=0 / bframes=10 / b_pyramid=2 / b_adapt=2 / b_bias=0 / direct=3 / weightb=1 / open_gop=0 / weightp=2 / keyint=240 / keyint_min=23 / scenecut=40 / intra_refresh=0 / rc=2pass / mbtree=0 / bitrate=5521 / ratetol=1.0 / qcomp=0.60 / qpmin=0 / qpmax=69 / qpstep=4 / cplxblur=20.0 / qblur=0.5 / ip_ratio=1.40 / pb_ratio=1.30 / aq=1:1.00
Language : English
Default : Yes
Forced : No
Audio #1
ID : 2
Format : AC-3
Format/Info : Audio Coding 3
Mode extension : CM (complete main)
Format settings, Endianness : Big
Codec ID : A_AC3
Duration : 54mn 30s
Bit rate mode : Constant
Bit rate : 448 Kbps
Channel(s) : 6 channels
Channel positions : Front: L C R, Side: L R, LFE
Sampling rate : 48.0 KHz
Frame rate : 31.250 fps (1536 spf)
Compression mode : Lossy
Stream size : 175 MiB (7%)
Title : NovaFilm AC3 5.1 448 Kbps
Language : Russian
Default : Yes
Forced : No
Audio #2
ID : 3
Format : AC-3
Format/Info : Audio Coding 3
Mode extension : CM (complete main)
Format settings, Endianness : Big
Codec ID : A_AC3
Duration : 54mn 30s
Bit rate mode : Constant
Bit rate : 192 Kbps
Channel(s) : 2 channels
Channel positions : Front: L R
Sampling rate : 48.0 KHz
Frame rate : 31.250 fps (1536 spf)
Compression mode : Lossy
Stream size : 74.9 MiB (3%)
Title : FoxCrime AC3 2.0 192 Kbps
Language : Russian
Default : No
Forced : No
Audio #3
ID : 4
Format : AC-3
Format/Info : Audio Coding 3
Mode extension : CM (complete main)
Format settings, Endianness : Big
Codec ID : A_AC3
Duration : 54mn 30s
Bit rate mode : Constant
Bit rate : 448 Kbps
Channel(s) : 6 channels
Channel positions : Front: L C R, Side: L R, LFE
Sampling rate : 48.0 KHz
Frame rate : 31.250 fps (1536 spf)
Compression mode : Lossy
Stream size : 175 MiB (7%)
Title : Original AC3 5.1 448 Kbps
Language : English
Default : No
Forced : No
Text #1
ID : 5
Format : UTF-8
Codec ID : S_TEXT/UTF8
Codec ID/Info : UTF-8 Plain Text
Duration : 53mn 42s
Bit rate : 94 bps
Count of elements : 771
Stream size : 37.3 KiB (0%)
Language : Russian
Default : No
Forced : No
Text #2
ID : 6
Format : UTF-8
Codec ID : S_TEXT/UTF8
Codec ID/Info : UTF-8 Plain Text
Duration : 53mn 35s
Bit rate : 55 bps
Count of elements : 779
Stream size : 21.8 KiB (0%)
Language : English
Default : No
Forced : No
Menu
00:00:00.000 : en:00:00:00.000
00:04:45.284 : en:00:04:45.284
00:12:33.711 : en:00:12:33.711
00:19:39.677 : en:00:19:39.677
00:28:53.856 : en:00:28:53.856
00:39:17.355 : en:00:39:17.355
00:53:31.166 : en:00:53:31.166

Скриншоты

Внимание! Раздача ведётся путём добавления новых серий

Внимание! Раздача ведётся путём добавления новых серий; при каждом добавлении создаётся новый торрент. Чтобы начать докачку новой серии, пользователям необходимо сделать следующее:
(1) остановить скачивание,
(2) удалить старый торрент у себя из клиента (старые серии удалять не надо),
(3) скачать новый торрент и запустить его у себя в клиенте вместо старого, при этом указать клиенту путь в старую папку куда и должно происходить скачивание новых серий.
Ваш клиент при этом должен произвести хеширование (проверку) старой папки (если не производит сам - помогите ему сделать это), и будет докачивать только те серии которых у вас ещё нет. Старые серии при этом не удаляются, а продолжают раздаваться!
Eсли вы уже удалили старые серии, то предотвратить повторную закачку старых серий можно, отжав галочку в соответсвующих местах при запуске нового торрента. По возможности, желательно не удалять старые серии как можно дольше чтобы релизёр не столько продолжал раздавать старые серии, а смог сконцентрироваться на новых.
24.02.16 добавлена дорожка FoxCrime
[cybertorrent.ru].t8059.torrent 
Торрент: Зарегистрирован [ 2018-02-18 23:20 ] · 083A009ECF1A91F32085AA10B109A3B2D4F4EF29

Скачать .torrent

Скачать

73 KB

Статус: проверено
Скачан: 0 раз
Размер: 28,45 GB
Профиль [ЛС]
Показать сообщения:    

Текущее время: 21-Апр 07:51

Часовой пояс: UTC ± 0



Вы не можете начинать темы
Вы не можете отвечать на сообщения
Вы не можете редактировать свои сообщения
Вы не можете удалять свои сообщения
Вы не можете голосовать в опросах
Вы не можете прикреплять файлы к сообщениям
Вы можете скачивать файлы