Статистика раздачи
Размер:  694 MB   |    Зарегистрирован:  1 день 23 часа   |    Скачан:  0 раз

Полного источника не было: Никогда

 
   
 
 

Frozen ®

Пол:
Не указан
Стаж:
3 дня
Сообщений:
97

«Под крышей науки. Тайные проекты спецслужб»
Премьера на канале РЕН ТВ!
Год выпуска: 2017 г.
Страна: Россия
Жанр: Документальный спецпроект
Продолжительность: 0:48:28.
Руководитель проекта: Игорь Прокопенко
Режиссер: ...
Перевод: Не требуется
Русские субтитры: нет
Описание: Всего один кадр и сразу сенсация, на этой фотографии новый беспилотный тягач. Мировая пресса с восторгом пишет о новой эре автомобилестроения, о технической революции, которую устроил человек под именем Илон Маск. Инженер-изобретатель, миллиардер, а с недавних пор один из шестнадцати американских предпринимателей, консультирующих самого президента США Дональда Трампа.

Релиз группы:
Качество: SATRip
Формат: AVI
Видео: 720x400 (1.80:1), 25 fps, XviD ~1864 kbps, 0.26 bit/pixel
Аудио: 48 kHz, MPEG Layer 3, 2 ch, ~128 kbps avg

MediaInfo:

Общее
Полное имя : D:\Torrents\Pod_krysshej_nauki-Tajnye_proekty_specsluzhb_(REN_TV)-20.10.2017_[rutracker.org].avi
Формат : AVI
Формат/Информация : Audio Video Interleave
Размер файла : 694 Мбайт
Продолжительность : 48 м.
Общий поток : 2002 Кбит/сек
Библиотека кодирования : VirtualDub-MPEG2 build 24600/release
Видео
Идентификатор : 0
Формат : MPEG-4 Visual
Профиль формата : Advanced Simple@L5
Параметр BVOP формата : 2
Параметр QPel формата : Нет
Параметр GMC формата : Без точки перехода
Параметр матрицы формата : Default (MPEG)
Идентификатор кодека : XVID
Идентификатор кодека/Подсказка : XviD
Продолжительность : 48 м.
Битрейт : 1864 Кбит/сек
Ширина : 720 пикселей
Высота : 400 пикселей
Соотношение сторон : 16:9
Частота кадров : 25,000 кадров/сек
Цветовое пространство : YUV
Субдискретизация насыщенности : 4:2:0
Битовая глубина : 8 бит
Тип развёртки : Прогрессивная
Метод сжатия : С потерями
Бит/(Пиксели*Кадры) : 0.259
Размер потока : 646 Мбайт (93%)
Библиотека кодирования : XviD 1.2.1 (UTC 2008-12-04)
Аудио
Идентификатор : 1
Формат : MPEG Audio
Версия формата : Version 1
Профиль формата : Layer 3
Режим : Joint stereo
Расширение режима : MS Stereo
Идентификатор кодека : 55
Идентификатор кодека/Подсказка : MP3
Продолжительность : 48 м.
Вид битрейта : Постоянный
Битрейт : 128 Кбит/сек
Каналы : 2 канала
Частота : 48,0 КГц
Метод сжатия : С потерями
Размер потока : 44,4 Мбайт (6%)
Выравнивание : Разделение по промежуткам
Продолжительность промежутка : 40 мс. (1,00 видеокадр)
Время предзагрузки промежутка : 500 мс.
Библиотека кодирования : LAMEЄЄ

Скриншоты (превью, увеличение по клику):

На раздаче по возможности, ~12 Mb/s. > [Что от меня зависит, сделал. Остальное зависит от Вас, трекера и наших провайдеров.]
[cybertorrent.ru].t3495.torrent 
Торрент: Зарегистрирован [ 2018-02-16 23:01 ] · 2AF33694304EBD7E7B6BDC2CD971F5D39A8E0991

Скачать .torrent

Скачать

14 KB

Статус: проверено
Скачан: 0 раз
Размер: 694 MB
terms.php
Профиль [ЛС]
Показать сообщения:    

Текущее время: 18-Фев 22:24

Часовой пояс: UTC ± 0



Вы не можете начинать темы
Вы не можете отвечать на сообщения
Вы не можете редактировать свои сообщения
Вы не можете удалять свои сообщения
Вы не можете голосовать в опросах
Вы не можете прикреплять файлы к сообщениям
Вы можете скачивать файлы