Статистика раздачи
Размер:  1,37 GB   |    Зарегистрирован:  4 дня   |    Скачан:  0 раз

Полного источника не было: Никогда

 
   
 
 

lopster ®

Пол:
Не указан
Стаж:
5 дней
Сообщений:
510

Марфа и ее щенки
Год выпуска: 2006
Жанр: Комедия, мелодрама
Продолжительность: 01:25:36
Режиссер: Юрий Морозов
В ролях: Игорь Яcулoвич, Оксана Cтaшeнкo, Сергей Шeхoвцoв, Иван Шaбaлтac, Александр Tютин, Артем Ceмaкин
Описание: Самый добрый Российский фильм! Это история трех щенков овчарки Марфы. Волею случая её дети были розданы в разные руки. Наши герои попали в водную стихию, на дачу к профессору, в дом враждующих соседей. И если бы не щенки Марфы, кто знает, как бы сложились судьбы их хозяев. А так, благодаря четвероногим друзьям, любящие сердца нашли друг друга и соединились. Шекспировская трагедия, Чеховская комедия и О'Ниловская мелодрама - вот те жизненные ситуации, героями которых оказались наши собаки. Без них, антологических друзей человека, не обрели бы счастья их хозяева.
Релиз:
Все раздачи фильма: Марфа и ее щенки
Качество: DVDRip
Формат: AVI
Видео кодек: DivX
Аудио кодек: AC3
Видео: DivX, 1897 Кбит/с, 464x288, 25 fps
Аудио: AC3, 384 Кбит/с, 48 kHz

MI

Код:Общее
Полное имя : C:\otkat\Видео\Марфа и ее щенки\Marfa.i.ee.shenki.2006.DivX.DVDRip.Kinozal.tv.avi
Формат : AVI
Формат/Информация : Audio Video Interleave
Размер файла : 1,37 Гбайт
Продолжительность : 1 ч. 25 м.
Общий поток : 2288 Кбит/сек
Программа кодирования : VirtualDubMod 1.5.4.1 (build 2178/release)
Библиотека кодирования : VirtualDubMod build 2178/release
Видео
Идентификатор : 0
Формат : MPEG-4 Visual
Параметр BVOP формата : 1
Параметр QPel формата : Нет
Параметр GMC формата : Без точки перехода
Параметр матрицы формата : Default (H.263)
Режим смешивания : Сжатый битовый поток
Идентификатор кодека : DX50
Идентификатор кодека/Подсказка : DivX 5
Продолжительность : 1 ч. 25 м.
Битрейт : 1897 Кбит/сек
Ширина : 464 пикселя
Высота : 288 пикселей
Соотношение сторон : 16:10
Частота кадров : 25,000 кадров/сек
Цветовое пространство : YUV
Субдискретизация насыщенности : 4:2:0
Битовая глубина : 8 бит
Тип развёртки : Прогрессивная
Метод сжатия : С потерями
Бит/(Пиксели*Кадры) : 0.568
Размер потока : 1,13 Гбайт (83%)
Библиотека кодирования : DivX 6.6.1.4
Аудио
Идентификатор : 1
Формат : AC-3
Формат/Информация : Audio Coding 3
Расширение режима : CM (complete main)
Параметр Endianness формата : Big
Идентификатор кодека : 2000
Продолжительность : 1 ч. 25 м.
Вид битрейта : Постоянный
Битрейт : 384 Кбит/сек
Каналы : 6 каналов
Расположение каналов : Front: L C R, Side: L R, LFE
Частота : 48,0 КГц
Частота кадров : 31,250 кадров/сек (1536 spf)
Метод сжатия : С потерями
Размер потока : 235 Мбайт (17%)
Выравнивание : Разделение по промежуткам
Продолжительность промежутка : 96 мс. (2,40 видеокадра)
Время предзагрузки промежутка : 96 мс.
Язык : Russian

Скриншоты


[cybertorrent.ru].t36.torrent 
Торрент: Зарегистрирован [ 2018-02-15 13:57 ] · C5D81B8AB86529840F034F1925E92D6240A38A02

Скачать .torrent

Скачать

14 KB

Статус: проверено
Скачан: 0 раз
Размер: 1,37 GB
terms.php
Профиль [ЛС]
Показать сообщения:    

Текущее время: 20-Фев 11:38

Часовой пояс: UTC ± 0



Вы не можете начинать темы
Вы не можете отвечать на сообщения
Вы не можете редактировать свои сообщения
Вы не можете удалять свои сообщения
Вы не можете голосовать в опросах
Вы не можете прикреплять файлы к сообщениям
Вы можете скачивать файлы