Статистика раздачи
Размер:  150 MB   |    Зарегистрирован:  4 дня   |    Скачан:  0 раз

Полного источника не было: Никогда

 
   
 
 

norvil ®

Пол:
Не указан
Стаж:
6 дней
Сообщений:
72

Потёмкинские деревни
Страна: Россия
Жанр: мультфильм
Продолжительность: 00:14:51
Год выпуска: 2017
Режиссёр: Максим Поляков
Текст читает: Александр Пожаров
Описание: Комичная экранизация исторического предания о бутафорских деревнях, выстроенных князем Потёмкиным вдоль маршрута путешествия императрицы Екатерины Второй в Тавриду.
Качество: WEBRip-AVC
Формат: MP4
Видео: 1282 kbps, 1280х720 (16:9), 25.000 fps, AVC (High@L3.1)
Аудио: 126 kbps, 44.1 kHz, 2 channels, AAC (LC)
Субтитры: отсутствуют

Подробные технические данные

General
Complete name : Потёмкинские деревни (2017).mp4
Format : MPEG-4
Format profile : Base Media / Version 2
Codec ID : mp42
File size : 150 MiB
Duration : 14mn 51s
Overall bit rate mode : Variable
Overall bit rate : 1 411 Kbps
Encoded date : UTC 2017-11-04 08:25:45
Tagged date : UTC 2017-11-04 08:25:45
gsst : 0
gstd : 891065
Video
ID : 1
Format : AVC
Format/Info : Advanced Video Codec
Format profile : Main@L3.1
Format settings, CABAC : Yes
Format settings, ReFrames : 3 frames
Codec ID : avc1
Codec ID/Info : Advanced Video Coding
Duration : 14mn 51s
Bit rate : 1 282 Kbps
Width : 1 280 pixels
Height : 720 pixels
Display aspect ratio : 16:9
Frame rate mode : Constant
Frame rate : 25.000 fps
Color space : YUV
Chroma subsampling : 4:2:0
Bit depth : 8 bits
Scan type : Progressive
Bits/(Pixel*Frame) : 0.056
Stream size : 136 MiB (91%)
Title : ISO Media file produced by Google Inc. Created on: 11/04/2017.
Encoded date : UTC 2017-11-04 08:25:45
Tagged date : UTC 2017-11-04 08:25:45
Color primaries : BT.709
Transfer characteristics : BT.709
Matrix coefficients : BT.709
Audio
ID : 2
Format : AAC
Format/Info : Advanced Audio Codec
Format profile : LC
Codec ID : 40
Duration : 14mn 51s
Bit rate mode : Variable
Bit rate : 126 Kbps
Channel(s) : 2 channels
Channel positions : Front: L R
Sampling rate : 44.1 KHz
Compression mode : Lossy
Stream size : 13.3 MiB (9%)
Title : ISO Media file produced by Google Inc. Created on: 11/04/2017.
Encoded date : UTC 2017-11-04 08:25:45
Tagged date : UTC 2017-11-04 08:25:45

Скриншоты

[cybertorrent.ru].t4427.torrent 
Торрент: Зарегистрирован [ 2018-02-17 04:38 ] · 8E05DCFAA06E47285A44227F506123FC101C8B66

Скачать .torrent

Скачать

12 KB

Статус: проверено
Скачан: 0 раз
Размер: 150 MB
terms.php
Профиль [ЛС]
Показать сообщения:    

Текущее время: 21-Фев 20:59

Часовой пояс: UTC ± 0



Вы не можете начинать темы
Вы не можете отвечать на сообщения
Вы не можете редактировать свои сообщения
Вы не можете удалять свои сообщения
Вы не можете голосовать в опросах
Вы не можете прикреплять файлы к сообщениям
Вы можете скачивать файлы