Статистика раздачи
Размер:  20,46 GB   |    Зарегистрирован:  16 часов   |    Скачан:  0 раз

Полного источника не было: Никогда

Личеров:  1  [  0 KB/s  ]   Подробная статистика пиров
 
   
 
 

Jana ®

Пол:
Не указан
Стаж:
3 дня
Сообщений:
29

Менталист | Cезон 4, Серия 1-24 | The Mentalist | HDTV 720p- Страна: США
Продолжительность серии: ~00:45
Год выпуска: 2011
Жанр: Драма, детектив
Русские субтитры: есть (отдельно) (Перевод группы TheBestRuTranslate)
Режиссёр: Чарльз Бисон, Эрик Ланёвилль, Джон Шоуолтер, Крис Лонг-В ролях:
Саймон Бейкер, Робин Танни, Аманда Риджетти, Тим Кенг, Овайн Йомен, и другие-Описание:
Патрик Джейн — детектив и независимый консультант из Калифорнийского Бюро Расследований (КБР), он использует свои отточенные, как лезвие, навыки наблюдения для раскрытия тяжких преступлений. В самом Бюро Джейн известен за частые нарушения протокола, а также за его звездное прошлое: он работал медиумом, однако теперь сам признает, что симулировал паранормальные способности. Роль Джейна в раскрытии целой серии загадочных преступлений высоко ценится коллегами.-Дополнительно:
Субтитры выходят чаще все всего по пятницам, в тот же день что и серия. Качество перевода приемлемое, особенно по сравнению с коллективным переводами. Раздача обновляется только с готовыми переводами!-Характеристики:
Качество: HDTV 720p
Формат: MKV
Видео кодек: x.264
Аудио кодек: AC3
Видео: 1280x720 23.976 fps ~2500 Kbps 0.092 bit/pixel
Аудио ENG: AC3 5.1 48000Hz 384kbps-Другие раздачи этого сериала- -

MI

General
Complete name : D:\Сериалы\The Mentalist (Season 4)\The.Mentalist.S04E01.720p.HDTV.x264-IMMERSE.mkv
Format : Matroska
File size : 748 MiB
Duration : 42mn 13s
Overall bit rate : 2 476 Kbps
Writing application : x264.exe
Writing library : mkv2rls x264-tv version built on 2011. febr. 17
Video
ID : 1
Format : AVC
Format/Info : Advanced Video Codec
Format profile : High@L3.1
Format settings, CABAC : Yes
Format settings, ReFrames : 5 frames
Codec ID : V_MPEG4/ISO/AVC
Duration : 42mn 13s
Bit rate : 2 042 Kbps
Width : 1 280 pixels
Height : 720 pixels
Display aspect ratio : 16:9
Frame rate : 23.976 fps
Color space : YUV
Chroma subsampling : 4:2:0
Bit depth : 8 bits
Scan type : Progressive
Bits/(Pixel*Frame) : 0.092
Stream size : 617 MiB (82%)
Writing library : x264 core 116 r2074 2641b9e
Encoding settings : cabac=1 / ref=5 / deblock=1:0:0 / analyse=0x3:0x113 / me=umh / subme=8 / psy=1 / psy_rd=1.00:0.00 / mixed_ref=1 / me_range=16 / chroma_me=1 / trellis=1 / 8x8dct=1 / cqm=0 / deadzone=21,11 / fast_pskip=1 / chroma_qp_offset=-2 / threads=18 / sliced_threads=0 / nr=0 / decimate=1 / interlaced=0 / bluray_compat=0 / constrained_intra=0 / bframes=3 / b_pyramid=2 / b_adapt=2 / b_bias=0 / direct=3 / weightb=1 / open_gop=0 / weightp=2 / keyint=250 / keyint_min=23 / scenecut=40 / intra_refresh=0 / rc_lookahead=50 / rc=crf / mbtree=1 / crf=19.0 / qcomp=0.60 / qpmin=0 / qpmax=69 / qpstep=4 / ip_ratio=1.40 / aq=1:1.00
Language : English
Audio
ID : 2
Format : AC-3
Format/Info : Audio Coding 3
Mode extension : CM (complete main)
Codec ID : A_AC3
Duration : 42mn 13s
Bit rate mode : Constant
Bit rate : 384 Kbps
Channel(s) : 6 channels
Channel positions : Front: L C R, Side: L R, LFE
Sampling rate : 48.0 KHz
Bit depth : 16 bits
Compression mode : Lossy
Stream size : 116 MiB (16%)
Language : English

Внимание! Раздача ведётся путём добавления новых серий!

Внимание! Раздача ведётся путём добавления новых серий; при каждом добавлении создётся новый торрент. Чтобы начать докачку новой серии, пользователям необходимо сделать следующее:
(1) остановить скачивание,
(2) удалить старый торрент у себя из клиента (старые серии удалять не надо),
(3) скачать новый торрент и запустить его у себя в клиенте вместо старого, при этом указать клиенту путь в старую папку куда и должно происходить скачивание новых серий.
Ваш клиент при этом должен произвести хеширование (проверку) старой папки (если не производит сам - помогите ему сделать это), и будет докачивать только те серии которых у вас ещё нет. Старые серии при этом не удаляются, а продолжают раздаваться!
Eсли вы уже удалили старые серии, то предотвратить повторную закачку старых серий можно, отжав галочку в соответсвующих местах при запуске нового торрента.
[cybertorrent.ru].t7828.torrent 
Торрент: Зарегистрирован [ Вчера, в 23:20 ] · 587F3995ED7B34E256462612FA205CF52C0BF0BC

Скачать .torrent

Скачать

109 KB

Статус: проверено
Скачан: 0 раз
Размер: 20,46 GB
terms.php
Профиль [ЛС]
Показать сообщения:    

Текущее время: 19-Фев 15:50

Часовой пояс: UTC ± 0



Вы не можете начинать темы
Вы не можете отвечать на сообщения
Вы не можете редактировать свои сообщения
Вы не можете удалять свои сообщения
Вы не можете голосовать в опросах
Вы не можете прикреплять файлы к сообщениям
Вы можете скачивать файлы
Элитные индивидуалки, проверенные индивидуалки и петербурга.