Статистика раздачи
Размер:  33,28 GB   |    Зарегистрирован:  3 месяца 7 дней   |    Скачан:  0 раз

Полного источника не было: Никогда

 
   
 
 

Jana ®

Пол:
Не указан
Стаж:
3 месяца 10 дней
Сообщений:
553

Менталист / The Mentalist / Сезон 4
Год выпуска: 2011
Страна: США
Жанр: драма, криминал
Продолжительность: ~43 мин
Перевод: профессиональный многоголосый закадровый / Universal Russia
Режиссёр: Крис Лонг
В ролях: Саймон Бейкер, Робин Танни, Аманда Риджетти, Тим Кенг, Овайн Йомен, Грегори Итцин.
Описание: Патрик Джейн - детектив и независимый консультант из Калифорнийского Бюро Расследований (КБР). Он использует свои отточенные, как лезвие, навыки наблюдения для раскрытия тяжких преступлений. В самом Бюро Джейн известен за частые нарушения протокола, а также за его звездное прошлое: он работал медиумом, однако теперь сам признает, что симулировал паранормальные способности.
Четвертый сезон этого номинированного на премии «Золотой Глобус» и «Эмми» поистине захватывающего телесериала приносит новые сюрпризы: Патрик Джейн арестован и отчаянно пытается доказать, что застреленный им человек - маньяк Красный Джон, убивший его жену и дочь.

Качество: WEB-DL 720p
Формат: MKV
Видео кодек: H.264
Аудио кодек: AC3
СЕРИИ 01-12
Видео: MPEG4 AVC, 1280х720 (16:9), 25 fps, ~4000 kbps, 0.18 bit/pixel
Аудио 1: Русский, AC3, 2.0, 48 kHz, 192 kbps
Аудио 2: Английский, AC3, 5.1, 48 kHz, 448 kbps
СЕРИИ 13-22
Видео: MPEG4 AVC, 1280х720 (16:9), 23.976 fps, ~4000 kbps, 0.18 bit/pixel
Аудио 1: Русский, AC3, 2.0, 48 kHz, 192 kbps
Аудио 2: Английский, AC3, 5.1, 48 kHz, 384 kbps
IMDB: 8,2/10
3 сезон в WEB-DL с переводом Universal Russia

MI

СЕРИИ 01-12
Общее
Уникальный идентификатор : 207316037306851900182443582714154998006 (0x9BF79DCDB51C17B8AC559F5B484E58F6)
Полное имя : E:\The Mentalist 4\The Mentalist s04e01.mkv
Формат : Matroska
Размер файла : 1,41 Гбайт
Продолжительность : 40 м.
Общий поток : 4930 Кбит/сек
Дата кодирования : UTC 2012-03-07 19:36:33
Программа кодирования : mkvmerge v5.2.1 ('A Far Off Place') built on Jan 2 2012 23:21:10
Библиотека кодирования : libebml v1.2.3 + libmatroska v1.3.0
Видео
Идентификатор : 1
Формат : AVC
Формат/Информация : Advanced Video Codec
Профиль формата : High@L3.1
Параметр CABAC формата : Нет
Параметр ReFrames формата : 2 кадра
Параметры GOP формата : M=2, N=54
Идентификатор кодека : V_MPEG4/ISO/AVC
Продолжительность : 40 м.
Битрейт : 4192 Кбит/сек
Ширина : 1280 пикс.
Высота : 720 пикс.
Соотношение сторон : 16:9
Соотношение сторон в оригинале : 16:9
Частота кадров : 25,000 кадр/сек
Цветовое пространство : YUV
Подвыборка цветности : 4:2:0
Битовая глубина : 8 бит
Тип развёртки : Прогрессивная
Бит/(Пиксели*Кадры) : 0.183
Размер потока : 1,20 Гбайт (85%)
Основные цвета : BT.709-5, BT.1361, IEC 61966-2-4, SMPTE RP177
Характеристики трансфера : BT.709-5, BT.1361
Коэффициенты матрицы : BT.709-5, BT.1361, IEC 61966-2-4 709, SMPTE RP177
Аудио #1
Идентификатор : 2
Формат : AC-3
Формат/Информация : Audio Coding 3
Расширение режима : CM (complete main)
Идентификатор кодека : A_AC3
Продолжительность : 40 м.
Вид битрейта : Постоянный
Битрейт : 192 Кбит/сек
Каналы : 2 канала
Расположение каналов : Front: L R
Частота : 48,0 КГц
Битовая глубина : 16 бит
Размер потока : 56,1 Мбайт (4%)
Заголовок : RUS
Язык : Russian
Аудио #2
Идентификатор : 3
Формат : AC-3
Формат/Информация : Audio Coding 3
Расширение режима : CM (complete main)
Идентификатор кодека : A_AC3
Продолжительность : 40 м.
Вид битрейта : Постоянный
Битрейт : 448 Кбит/сек
Каналы : 6 каналов
Расположение каналов : Front: L C R, Side: L R, LFE
Частота : 48,0 КГц
Битовая глубина : 16 бит
Размер потока : 131 Мбайт (9%)
Заголовок : ENG
Язык : English
СЕРИИ 13-22
Общее
Уникальный идентификатор : 178563304073044096904746706672969447529 (0x86560A9B0B89285BB82D4ADDB2E1F869)
Полное имя : E:\The Mentalist 4\The Mentalist s04e13.mkv
Формат : Matroska
Размер файла : 1,33 Гбайт
Продолжительность : 41 м.
Общий поток : 4623 Кбит/сек
Дата кодирования : UTC 2012-06-08 12:43:42
Программа кодирования : mkvmerge v5.5.0 ('Healer') built on Apr 6 2012 21:43:24
Библиотека кодирования : libebml v1.2.3 + libmatroska v1.3.0
Видео
Идентификатор : 1
Формат : AVC
Формат/Информация : Advanced Video Codec
Профиль формата : High@L3.1
Параметр CABAC формата : Нет
Параметр ReFrames формата : 2 кадра
Идентификатор кодека : V_MPEG4/ISO/AVC
Продолжительность : 41 м.
Битрейт : 3955 Кбит/сек
Ширина : 1280 пикс.
Высота : 720 пикс.
Соотношение сторон : 16:9
Частота кадров : 23,976 кадр/сек
Цветовое пространство : YUV
Подвыборка цветности : 4:2:0
Битовая глубина : 8 бит
Тип развёртки : Прогрессивная
Бит/(Пиксели*Кадры) : 0.179
Размер потока : 1,13 Гбайт (86%)
Основные цвета : BT.709-5, BT.1361, IEC 61966-2-4, SMPTE RP177
Характеристики трансфера : BT.709-5, BT.1361
Коэффициенты матрицы : BT.709-5, BT.1361, IEC 61966-2-4 709, SMPTE RP177
Аудио #1
Идентификатор : 2
Формат : AC-3
Формат/Информация : Audio Coding 3
Расширение режима : CM (complete main)
Идентификатор кодека : A_AC3
Продолжительность : 41 м.
Вид битрейта : Постоянный
Битрейт : 192 Кбит/сек
Каналы : 2 канала
Расположение каналов : Front: L R
Частота : 48,0 КГц
Битовая глубина : 16 бит
Размер потока : 56,4 Мбайт (4%)
Заголовок : RUS
Язык : Russian
Аудио #2
Идентификатор : 3
Формат : AC-3
Формат/Информация : Audio Coding 3
Расширение режима : CM (complete main)
Идентификатор кодека : A_AC3
Продолжительность : 41 м.
Вид битрейта : Постоянный
Битрейт : 384 Кбит/сек
Каналы : 6 каналов
Расположение каналов : Front: L C R, Side: L R, LFE
Частота : 48,0 КГц
Битовая глубина : 16 бит
Размер потока : 113 Мбайт (8%)
Заголовок : ENG
Язык : English

Предыдущие и альтернативные раздачи

Все раздачи сериала "Менталист"

Раздача ведется путем добавления новых серий

Внимание! Раздача ведётся путём добавления новых серий; при каждом добавлении создётся новый торрент. Чтобы начать докачку новой серии, пользователям необходимо сделать следующее: (1) остановить скачивание, (2) удалить старый торрент у себя из клиента (старые серии удалять не надо), (3) скачать новый торрент и запустить его у себя в клиенте вместо старого, при этом указать клиенту путь в старую папку куда и должно происходить скачивание новых серий.
Ваш клиент при этом должен произвести хеширование (проверку) старой папки (если не производит сам - помогите ему сделать это), и будет докачивать только те серии которых у вас ещё нет. Старые серии при этом не удаляются, а продолжают раздаваться!
Eсли вы уже удалили старые серии, то предотвратить повторную закачку старых серий можно, отжав галочку в соответсвующих местах при запуске нового торрента. По возможности, желательно не удалять старые серии как можно дольше чтобы релизёр не столько продолжал раздавать старые серии, а смог сконцентрироваться на новых..
Как закачать отдельный файл из торрента или докачать ранее пропущенные файлы торрента

Скриншоты

[cybertorrent.ru].t7992.torrent 
Торрент: Зарегистрирован [ 2018-02-18 23:20 ] · AFCB7ECBFE6ECA63DABD1FE4B565F04F595E1AD5

Скачать .torrent

Скачать

168 KB

Статус: проверено
Скачан: 0 раз
Размер: 33,28 GB
Профиль [ЛС]
Показать сообщения:    

Текущее время: 26-Май 21:37

Часовой пояс: UTC ± 0



Вы не можете начинать темы
Вы не можете отвечать на сообщения
Вы не можете редактировать свои сообщения
Вы не можете удалять свои сообщения
Вы не можете голосовать в опросах
Вы не можете прикреплять файлы к сообщениям
Вы можете скачивать файлы