Статистика раздачи
Размер:  1,55 GB   |    Зарегистрирован:  9 месяцев 21 день   |    Скачан:  0 раз

Полного источника не было: Никогда

 
   
 
 

safari ®

Пол:
Мужской
Стаж:
9 месяцев 25 дней
Сообщений:
98

The Conet Project - Recordings Of Shortwave Numbers Stations Жанр: Radioplay, Experimental
Год выпуска диска: 1997 (2013 15th Anniversary Bonus Disc Edition)
Country: UK
Аудио кодек: FLAC
Тип рипа: tracks+.cue
Битрейт аудио: lossless
Продолжительность: 5:52:40
Источник: what.cd (stothen)Discogs.com
-

Об этом сборнике

The Conet Project: Recordings of Shortwave Numbers Stations (рус. Проект Conet: записи коротковолновых номерных радиостанций) — набор записей номерных радиостанций, состоящий из 4 CD-дисков. Сборник был основан на работах любителя-исследователя номерных радиостанций Акина Фернандеса (англ. Akin Fernandez) и выпущен в 1997 году английским лейблом звукозаписи Irdial-Discs.
«The Conet Project» стал своего рода культом, его фанатами являются многие музыканты и режиссёры, включая фронтмена Wilco Джеффа Твиди (англ. Jeff Tweedy), помощника Melvins Дэвида Скотта Стоуна (англ. David Scott Stone), Boards of Canada, The Besnard Lakes, Девендру Банхарта, вокалиста Faith No More Майка Паттона и режиссёра Кэмерона Кроува (англ. Cameron Crowe). Семплы из сборника использовались в некоторых фильмах и альбомах, например, в фильме «Ванильное небо», альбоме «Stupid Dream» группы Porcupine Tree, альбоме «These Four Walls» группы We Were Promised Jetpacks, а также в альбоме Wilco «Yankee Hotel Foxtrot». Последний стал причиной судебного дела: Джефф Твиди не спрашивал разрешения на исплользование семплов The Conet Project, Irdial подала в суд за нарушение авторских прав. Этот случай вызвал дебаты о том, кто обладает авторскими правами на записи передач номерных радиостанций, но Твиди, чтобы избежать судебных разбирательств, согласился выплатить Irdial роялти. The Besnard Lakes также использовали записи номерных радиостанций в своём альбоме «The Besnard Lakes Are the Dark Horse», а фронтмен группы Джейс Ласек (англ. Jace Lasek) считается поклонником The Conet Project.
Следуя своей «Философии свободной музыки» (англ. Free Music Philosophy), Irdial-Discs даёт возможность бесплатной загрузки сборника в формате MP3 (вместе с PDF-версией буклета) на своём веб-сайте и призывает фанатов обмениваться записями через файлообменные сети.
Название проекта происходит от чешского слова «konec», означающего конец передачи на чешской номерной радиостанции. (с) Wikipedia.org
-

Disc 1

Продолжительность: 1:12:47
Трэклист:
01. The Swedish Rhapsody (4:18)
02. Counting (3:34)
03. Counting 'Control' (2:01)
04. Phonetic Alphabet - NATO (4:36)
05. 5 Dashes (3:30)
06. The Lincolnshire Poacher (4:39)
07. Gong Station/Chimes (3:29)
08. DFD 21 (2:37)
09. Ready Ready (15728) (2:04)
10. Bugle (1:00)
11. 5 note version 'Czech Lady' (1:38)
12. Three Note Oddity (2:18)
13. New Star Broadcasting (6:32)
14. Counting Station (Spanish) (4:41)
15. English Lady/00000 ending (3:32)
16. Attencion/3 Finals (3:32)
17. 4 Note Rising Scale (3:14)
18. Ciocirlia (5:16)
19. Czech Lady (3:18)
20. 2 Letter 'YS' (1:46)
21. 2 Letter 'EL' (1:10)
22. 5 Dashes (2) (1:40)
23. 2 Letter 'RK' (2:23)

Log

Exact Audio Copy V0.99 prebeta 4 from 23. January 2008
EAC extraction logfile from 5. January 2009, 10:39
Various / The Conet Project: Recordings of Shortwave Numbers Stations (disc 1)
Used drive : LITE-ON COMBO SOHC-5235K Adapter: 1 ID: 1
Read mode : Secure
Utilize accurate stream : Yes
Defeat audio cache : Yes
Make use of C2 pointers : No
Read offset correction : 6
Overread into Lead-In and Lead-Out : No
Fill up missing offset samples with silence : Yes
Delete leading and trailing silent blocks : No
Null samples used in CRC calculations : Yes
Used interface : Installed external ASPI interface
Gap handling : Appended to previous track
Used output format : Internal WAV Routines
Sample format : 44.100 Hz; 16 Bit; Stereo
TOC of the extracted CD
Track | Start | Length | Start sector | End sector
---------------------------------------------------------
1 | 0:00.00 | 4:17.57 | 0 | 19331
2 | 4:17.57 | 3:33.46 | 19332 | 35352
3 | 7:51.28 | 2:01.02 | 35353 | 44429
4 | 9:52.30 | 4:36.02 | 44430 | 65131
5 | 14:28.32 | 3:29.45 | 65132 | 80851
6 | 17:58.02 | 4:38.40 | 80852 | 101741
7 | 22:36.42 | 3:28.66 | 101742 | 117407
8 | 26:05.33 | 2:37.24 | 117408 | 129206
9 | 28:42.57 | 2:04.15 | 129207 | 138521
10 | 30:46.72 | 1:00.18 | 138522 | 143039
11 | 31:47.15 | 1:38.25 | 143040 | 150414
12 | 33:25.40 | 2:18.10 | 150415 | 160774
13 | 35:43.50 | 6:31.65 | 160775 | 190164
14 | 42:15.40 | 4:40.50 | 190165 | 211214
15 | 46:56.15 | 3:32.13 | 211215 | 227127
16 | 50:28.28 | 3:32.04 | 227128 | 243031
17 | 54:00.32 | 3:13.55 | 243032 | 257561
18 | 57:14.12 | 5:16.03 | 257562 | 281264
19 | 62:30.15 | 3:17.67 | 281265 | 296106
20 | 65:48.07 | 1:46.35 | 296107 | 304091
21 | 67:34.42 | 1:09.43 | 304092 | 309309
22 | 68:44.10 | 1:39.60 | 309310 | 316794
23 | 70:23.70 | 2:23.22 | 316795 | 327541
Track 1
Filename C:\The Conet Project - Recordings of Shortwave Numbers Stations (2001) [FLAC]\Disc 1\01 - The Swedish Rhapsody.wav
Pre-gap length 0:00:02.00
Peak level 99.9 %
Track quality 100.0 %
Test CRC 2E54E40E
Copy CRC 2E54E40E
Track not present in AccurateRip database
Copy OK
Track 2
Filename C:\The Conet Project - Recordings of Shortwave Numbers Stations (2001) [FLAC]\Disc 1\02 - Counting.wav
Peak level 100.0 %
Track quality 100.0 %
Test CRC C7E3096D
Copy CRC C7E3096D
Track not present in AccurateRip database
Copy OK
Track 3
Filename C:\The Conet Project - Recordings of Shortwave Numbers Stations (2001) [FLAC]\Disc 1\03 - Counting 'Control'.wav
Peak level 96.0 %
Track quality 100.0 %
Test CRC 74F81E42
Copy CRC 74F81E42
Track not present in AccurateRip database
Copy OK
Track 4
Filename C:\The Conet Project - Recordings of Shortwave Numbers Stations (2001) [FLAC]\Disc 1\04 - Phonetic Alphabet - NATO.wav
Peak level 100.0 %
Track quality 99.9 %
Test CRC 591BD70E
Copy CRC 591BD70E
Track not present in AccurateRip database
Copy OK
Track 5
Filename C:\The Conet Project - Recordings of Shortwave Numbers Stations (2001) [FLAC]\Disc 1\05 - 5 Dashes.wav
Peak level 95.4 %
Track quality 100.0 %
Test CRC 04166DF5
Copy CRC 04166DF5
Track not present in AccurateRip database
Copy OK
Track 6
Filename C:\The Conet Project - Recordings of Shortwave Numbers Stations (2001) [FLAC]\Disc 1\06 - The Lincolnshire Poacher.wav
Peak level 95.0 %
Track quality 99.9 %
Test CRC 5901E0A0
Copy CRC 5901E0A0
Track not present in AccurateRip database
Copy OK
Track 7
Filename C:\The Conet Project - Recordings of Shortwave Numbers Stations (2001) [FLAC]\Disc 1\07 - Chimes.wav
Peak level 80.5 %
Track quality 99.9 %
Test CRC 579E9CEB
Copy CRC 579E9CEB
Track not present in AccurateRip database
Copy OK
Track 8
Filename C:\The Conet Project - Recordings of Shortwave Numbers Stations (2001) [FLAC]\Disc 1\08 - DFD 21.wav
Peak level 92.1 %
Track quality 100.0 %
Test CRC 65E4FA71
Copy CRC 65E4FA71
Track not present in AccurateRip database
Copy OK
Track 9
Filename C:\The Conet Project - Recordings of Shortwave Numbers Stations (2001) [FLAC]\Disc 1\09 - Ready Ready (15728).wav
Peak level 75.4 %
Track quality 99.9 %
Test CRC 60E7BB59
Copy CRC 60E7BB59
Track not present in AccurateRip database
Copy OK
Track 10
Filename C:\The Conet Project - Recordings of Shortwave Numbers Stations (2001) [FLAC]\Disc 1\10 - Bugle.wav
Peak level 73.7 %
Track quality 100.0 %
Test CRC BD2CC96E
Copy CRC BD2CC96E
Track not present in AccurateRip database
Copy OK
Track 11
Filename C:\The Conet Project - Recordings of Shortwave Numbers Stations (2001) [FLAC]\Disc 1\11 - 5 note version 'Czech Lady'.wav
Peak level 45.4 %
Track quality 99.8 %
Test CRC 086EBC23
Copy CRC 086EBC23
Track not present in AccurateRip database
Copy OK
Track 12
Filename C:\The Conet Project - Recordings of Shortwave Numbers Stations (2001) [FLAC]\Disc 1\12 - Three Note Oddity.wav
Peak level 95.4 %
Track quality 99.9 %
Test CRC 410CD6EF
Copy CRC 410CD6EF
Track not present in AccurateRip database
Copy OK
Track 13
Filename C:\The Conet Project - Recordings of Shortwave Numbers Stations (2001) [FLAC]\Disc 1\13 - New Star Broadcasting.wav
Peak level 70.8 %
Track quality 99.9 %
Test CRC 62371B9B
Copy CRC 62371B9B
Track not present in AccurateRip database
Copy OK
Track 14
Filename C:\The Conet Project - Recordings of Shortwave Numbers Stations (2001) [FLAC]\Disc 1\14 - Counting Station (Spanish).wav
Peak level 76.0 %
Track quality 99.9 %
Test CRC 6572E147
Copy CRC 6572E147
Track not present in AccurateRip database
Copy OK
Track 15
Filename C:\The Conet Project - Recordings of Shortwave Numbers Stations (2001) [FLAC]\Disc 1\15 - 00000 ending.wav
Peak level 68.6 %
Track quality 99.9 %
Test CRC 5E1214D4
Copy CRC 5E1214D4
Track not present in AccurateRip database
Copy OK
Track 16
Filename C:\The Conet Project - Recordings of Shortwave Numbers Stations (2001) [FLAC]\Disc 1\16 - 3 Finals.wav
Peak level 90.0 %
Track quality 99.9 %
Test CRC 4B0B71AF
Copy CRC 4B0B71AF
Track not present in AccurateRip database
Copy OK
Track 17
Filename C:\The Conet Project - Recordings of Shortwave Numbers Stations (2001) [FLAC]\Disc 1\17 - 4 Note Rising Scale.wav
Peak level 68.0 %
Track quality 99.9 %
Test CRC 30AC31D2
Copy CRC 30AC31D2
Track not present in AccurateRip database
Copy OK
Track 18
Filename C:\The Conet Project - Recordings of Shortwave Numbers Stations (2001) [FLAC]\Disc 1\18 - Ciocirlia.wav
Peak level 100.0 %
Track quality 100.0 %
Test CRC D1CE932F
Copy CRC D1CE932F
Track not present in AccurateRip database
Copy OK
Track 19
Filename C:\The Conet Project - Recordings of Shortwave Numbers Stations (2001) [FLAC]\Disc 1\19 - Czech Lady.wav
Peak level 100.0 %
Track quality 99.9 %
Test CRC F5F862E3
Copy CRC F5F862E3
Track not present in AccurateRip database
Copy OK
Track 20
Filename C:\The Conet Project - Recordings of Shortwave Numbers Stations (2001) [FLAC]\Disc 1\20 - 2 Letter 'YS'.wav
Peak level 87.9 %
Track quality 100.0 %
Test CRC BA813F19
Copy CRC BA813F19
Track not present in AccurateRip database
Copy OK
Track 21
Filename C:\The Conet Project - Recordings of Shortwave Numbers Stations (2001) [FLAC]\Disc 1\21 - 2 Letter 'EL'.wav
Peak level 81.4 %
Track quality 100.0 %
Test CRC 6CB25CFD
Copy CRC 6CB25CFD
Track not present in AccurateRip database
Copy OK
Track 22
Filename C:\The Conet Project - Recordings of Shortwave Numbers Stations (2001) [FLAC]\Disc 1\22 - 5 Dashes (2).wav
Pre-gap length 0:00:01.50
Peak level 100.0 %
Track quality 100.0 %
Test CRC FEF0994F
Copy CRC FEF0994F
Track not present in AccurateRip database
Copy OK
Track 23
Filename C:\The Conet Project - Recordings of Shortwave Numbers Stations (2001) [FLAC]\Disc 1\23 - 2 Letter 'RK'.wav
Peak level 93.2 %
Track quality 100.0 %
Test CRC E5ACA8B1
Copy CRC E5ACA8B1
Track not present in AccurateRip database
Copy OK
None of the tracks are present in the AccurateRip database
No errors occurred
End of status report

.cue

REM GENRE Radioplay
REM DATE 1997
REM DISCID 4A110F17
REM COMMENT "ExactAudioCopy v0.99pb4"
PERFORMER "The Conet Project"
TITLE "The Conet Project: Recordings of Shortwave Numbers Stations"
FILE "01 - The Swedish Rhapsody.wav" WAVE
TRACK 01 AUDIO
TITLE "The Swedish Rhapsody"
PERFORMER "The Conet Project"
INDEX 01 00:00:00
FILE "02 - Counting.wav" WAVE
TRACK 02 AUDIO
TITLE "Counting"
PERFORMER "The Conet Project"
INDEX 01 00:00:00
FILE "03 - Counting 'Control'.wav" WAVE
TRACK 03 AUDIO
TITLE "Counting 'Control'"
PERFORMER "The Conet Project"
INDEX 01 00:00:00
FILE "04 - Phonetic Alphabet - NATO.wav" WAVE
TRACK 04 AUDIO
TITLE "Phonetic Alphabet - NATO"
PERFORMER "The Conet Project"
INDEX 01 00:00:00
FILE "05 - 5 Dashes.wav" WAVE
TRACK 05 AUDIO
TITLE "5 Dashes"
PERFORMER "The Conet Project"
INDEX 01 00:00:00
FILE "06 - The Lincolnshire Poacher.wav" WAVE
TRACK 06 AUDIO
TITLE "The Lincolnshire Poacher"
PERFORMER "The Conet Project"
INDEX 01 00:00:00
FILE "07 - Chimes.wav" WAVE
TRACK 07 AUDIO
TITLE "Chimes"
PERFORMER "The Conet Project"
INDEX 01 00:00:00
FILE "08 - DFD 21.wav" WAVE
TRACK 08 AUDIO
TITLE "DFD 21"
PERFORMER "The Conet Project"
INDEX 01 00:00:00
FILE "09 - Ready Ready (15728).wav" WAVE
TRACK 09 AUDIO
TITLE "Ready Ready (15728)"
PERFORMER "The Conet Project"
INDEX 01 00:00:00
FILE "10 - Bugle.wav" WAVE
TRACK 10 AUDIO
TITLE "Bugle"
PERFORMER "Bugle"
INDEX 01 00:00:00
FILE "11 - 5 note version 'Czech Lady'.wav" WAVE
TRACK 11 AUDIO
TITLE "5 note version 'Czech Lady'"
PERFORMER "The Conet Project"
INDEX 01 00:00:00
FILE "12 - Three Note Oddity.wav" WAVE
TRACK 12 AUDIO
TITLE "Three Note Oddity"
PERFORMER "The Conet Project"
INDEX 01 00:00:00
FILE "13 - New Star Broadcasting.wav" WAVE
TRACK 13 AUDIO
TITLE "New Star Broadcasting"
PERFORMER "The Conet Project"
INDEX 01 00:00:00
FILE "14 - Counting Station (Spanish).wav" WAVE
TRACK 14 AUDIO
TITLE "Counting Station (Spanish)"
PERFORMER "The Conet Project"
INDEX 01 00:00:00
FILE "15 - 00000 ending.wav" WAVE
TRACK 15 AUDIO
TITLE "00000 ending"
PERFORMER "The Conet Project"
INDEX 01 00:00:00
FILE "16 - 3 Finals.wav" WAVE
TRACK 16 AUDIO
TITLE "3 Finals"
PERFORMER "The Conet Project"
INDEX 01 00:00:00
FILE "17 - 4 Note Rising Scale.wav" WAVE
TRACK 17 AUDIO
TITLE "4 Note Rising Scale"
PERFORMER "The Conet Project"
INDEX 01 00:00:00
FILE "18 - Ciocirlia.wav" WAVE
TRACK 18 AUDIO
TITLE "Ciocirlia"
PERFORMER "The Conet Project"
INDEX 01 00:00:00
FILE "19 - Czech Lady.wav" WAVE
TRACK 19 AUDIO
TITLE "Czech Lady"
PERFORMER "The Conet Project"
INDEX 01 00:00:00
FILE "20 - 2 Letter 'YS'.wav" WAVE
TRACK 20 AUDIO
TITLE "2 Letter 'YS'"
PERFORMER "The Conet Project"
INDEX 01 00:00:00
FILE "21 - 2 Letter 'EL'.wav" WAVE
TRACK 21 AUDIO
TITLE "2 Letter 'EL'"
PERFORMER "The Conet Project"
INDEX 01 00:00:00
TRACK 22 AUDIO
TITLE "5 Dashes (2)"
PERFORMER "The Conet Project"
INDEX 00 01:08:05
FILE "22 - 5 Dashes (2).wav" WAVE
INDEX 01 00:00:00
FILE "23 - 2 Letter 'RK'.wav" WAVE
TRACK 23 AUDIO
TITLE "2 Letter 'RK'"
PERFORMER "The Conet Project"
INDEX 01 00:00:00

Disc 2

Продолжительность: 1:12:35
Трэклист:
01. NNN (2:56)
02. 'Strich' (0:35)
03. DFD21/DFC37 (1:55)
04. Drums & Trumpets (2:51)
05. NNN (English) (1:47)
06. English Lady - 00000 ending (2:10)
07. NNN (German) (1:00)
08. The Russian Man ('D-va' Northern Russian Voice) (1:34)
09. Phonetic Alphabet - NATO (0:49)
10. Spanish Lady (1:07)
11. 'Strich' (English) (0:30)
12. 2 Letter 'NU' (1:12)
13. 'Strich' (2) (0:38)
14. YT (3:34)
15. 5 Dashes (1:40)
16. German Man (1:45)
17. English Man (4:58)
18. English Man + German Lady (1:36)
19. German Lady (1:43)
20. Chinese Numbers (1:14)
21. Spanish Lady (2) (4:25)
22. 2 Letter 'MD' (1:38)
23. English Man (2) (1:13)
24. German Lady (2) (0:47)
25. Phonetic Alphabet - NATO (2) (0:54)
26. Phonetic Alphabet - NATO (3) (2:25)
27. Nancy Adam Susan (3:21)
28. Counting 'Control' (1:18)
29. Nancy Adam Susan (Male Voice) (2:44)
30. Cherry Ripe (1:34)
31. Russian Lady (1:57)
32. Russian Man (0:37)
33. NNN (English; current version) (1:54)
34. Frank Young Peter (0:59)
35. Cherta (1:04)
36. Russian Counting Man (0:58)
37. OLX (2:15)
38. 6 Tones (0:57)
39. High Pitch Polytone (2:02)
40. High Pitch Polytone (2) (0:31)
41. High Pitch Polytone (3) (1:17)
42. High Pitch Polytone (4) (1:00)
43. Oriental Language (1:11)

Log

Exact Audio Copy V0.99 prebeta 4 from 23. January 2008
EAC extraction logfile from 5. January 2009, 13:20
Various / The Conet Project: Recordings of Shortwave Numbers Stations (disc 2)
Used drive : _NEC DVD_RW ND-3540A Adapter: 0 ID: 0
Read mode : Secure
Utilize accurate stream : Yes
Defeat audio cache : Yes
Make use of C2 pointers : No
Read offset correction : 48
Overread into Lead-In and Lead-Out : No
Fill up missing offset samples with silence : Yes
Delete leading and trailing silent blocks : No
Null samples used in CRC calculations : Yes
Used interface : Installed external ASPI interface
Gap handling : Appended to previous track
Used output format : Internal WAV Routines
Sample format : 44.100 Hz; 16 Bit; Stereo
TOC of the extracted CD
Track | Start | Length | Start sector | End sector
---------------------------------------------------------
1 | 0:00.00 | 2:56.20 | 0 | 13219
2 | 2:56.20 | 0:35.35 | 13220 | 15879
3 | 3:31.55 | 1:54.60 | 15880 | 24489
4 | 5:26.40 | 2:51.22 | 24490 | 37336
5 | 8:17.62 | 1:47.20 | 37337 | 45381
6 | 10:05.07 | 2:09.60 | 45382 | 55116
7 | 12:14.67 | 1:00.08 | 55117 | 59624
8 | 13:15.00 | 1:33.69 | 59625 | 66668
9 | 14:48.69 | 0:48.50 | 66669 | 70318
10 | 15:37.44 | 1:06.60 | 70319 | 75328
11 | 16:44.29 | 0:30.28 | 75329 | 77606
12 | 17:14.57 | 1:11.42 | 77607 | 82973
13 | 18:26.24 | 0:38.21 | 82974 | 85844
14 | 19:04.45 | 3:34.35 | 85845 | 101929
15 | 22:39.05 | 1:39.42 | 101930 | 109396
16 | 24:18.47 | 1:45.25 | 109397 | 117296
17 | 26:03.72 | 4:57.65 | 117297 | 139636
18 | 31:01.62 | 1:36.18 | 139637 | 146854
19 | 32:38.05 | 1:42.57 | 146855 | 154561
20 | 34:20.62 | 1:13.53 | 154562 | 160089
21 | 35:34.40 | 4:25.02 | 160090 | 179966
22 | 39:59.42 | 1:38.05 | 179967 | 187321
23 | 41:37.47 | 1:13.27 | 187322 | 192823
24 | 42:50.74 | 0:47.11 | 192824 | 196359
25 | 43:38.10 | 0:54.25 | 196360 | 200434
26 | 44:32.35 | 2:25.04 | 200435 | 211313
27 | 46:57.39 | 3:20.43 | 211314 | 226356
28 | 50:18.07 | 1:17.62 | 226357 | 232193
29 | 51:35.69 | 2:44.03 | 232194 | 244496
30 | 54:19.72 | 1:33.57 | 244497 | 251528
31 | 55:53.54 | 1:57.16 | 251529 | 260319
32 | 57:50.70 | 0:36.74 | 260320 | 263093
33 | 58:27.69 | 1:53.51 | 263094 | 271619
34 | 60:21.45 | 0:59.07 | 271620 | 276051
35 | 61:20.52 | 1:04.37 | 276052 | 280888
36 | 62:25.14 | 0:57.55 | 280889 | 285218
37 | 63:22.69 | 2:15.15 | 285219 | 295358
38 | 65:38.09 | 0:56.63 | 295359 | 299621
39 | 66:34.72 | 2:02.20 | 299622 | 308791
40 | 68:37.17 | 0:30.52 | 308792 | 311093
41 | 69:07.69 | 1:16.66 | 311094 | 316859
42 | 70:24.60 | 0:59.62 | 316860 | 321346
43 | 71:24.47 | 1:11.00 | 321347 | 326671
Track 1
Filename C:\The Conet Project - Recordings of Shortwave Numbers Stations (2001) [FLAC]\Disc 2\01 - NNN.wav
Pre-gap length 0:00:02.00
Peak level 99.8 %
Track quality 100.0 %
Test CRC A00CA35E
Copy CRC A00CA35E
Copy OK
Track 2
Filename C:\The Conet Project - Recordings of Shortwave Numbers Stations (2001) [FLAC]\Disc 2\02 - Strich.wav
Pre-gap length 0:00:01.50
Peak level 91.9 %
Track quality 100.0 %
Test CRC B83E9EC4
Copy CRC B83E9EC4
Copy OK
Track 3
Filename C:\The Conet Project - Recordings of Shortwave Numbers Stations (2001) [FLAC]\Disc 2\03 - DFC37.wav
Pre-gap length 0:00:01.49
Peak level 100.0 %
Track quality 100.0 %
Test CRC AFCBF1C9
Copy CRC AFCBF1C9
Copy OK
Track 4
Filename C:\The Conet Project - Recordings of Shortwave Numbers Stations (2001) [FLAC]\Disc 2\04 - Drums & Trumpets.wav
Pre-gap length 0:00:01.48
Peak level 100.0 %
Track quality 100.0 %
Test CRC 7D9FC730
Copy CRC 7D9FC730
Copy OK
Track 5
Filename C:\The Conet Project - Recordings of Shortwave Numbers Stations (2001) [FLAC]\Disc 2\05 - NNN (English).wav
Pre-gap length 0:00:01.49
Peak level 90.8 %
Track quality 99.9 %
Test CRC C0B39F8C
Copy CRC C0B39F8C
Copy OK
Track 6
Filename C:\The Conet Project - Recordings of Shortwave Numbers Stations (2001) [FLAC]\Disc 2\06 - English Lady - 00000 ending.wav
Pre-gap length 0:00:01.50
Peak level 77.5 %
Track quality 100.0 %
Test CRC 21859BF5
Copy CRC 21859BF5
Copy OK
Track 7
Filename C:\The Conet Project - Recordings of Shortwave Numbers Stations (2001) [FLAC]\Disc 2\07 - NNN (German).wav
Pre-gap length 0:00:01.49
Peak level 100.0 %
Track quality 99.8 %
Test CRC 7C6C6E0E
Copy CRC 7C6C6E0E
Copy OK
Track 8
Filename C:\The Conet Project - Recordings of Shortwave Numbers Stations (2001) [FLAC]\Disc 2\08 - The Russian Man ('D-va' Northern Russian Voice).wav
Pre-gap length 0:00:01.48
Peak level 100.0 %
Track quality 100.0 %
Test CRC 4AFBB456
Copy CRC 4AFBB456
Copy OK
Track 9
Filename C:\The Conet Project - Recordings of Shortwave Numbers Stations (2001) [FLAC]\Disc 2\09 - Phonetic Alphabet - NATO.wav
Pre-gap length 0:00:01.61
Peak level 74.2 %
Track quality 100.0 %
Test CRC 6F908E6E
Copy CRC 6F908E6E
Copy OK
Track 10
Filename C:\The Conet Project - Recordings of Shortwave Numbers Stations (2001) [FLAC]\Disc 2\10 - Spanish Lady.wav
Pre-gap length 0:00:01.52
Peak level 76.7 %
Track quality 100.0 %
Test CRC F6697048
Copy CRC F6697048
Copy OK
Track 11
Filename C:\The Conet Project - Recordings of Shortwave Numbers Stations (2001) [FLAC]\Disc 2\11 - 'Strich' (English).wav
Pre-gap length 0:00:01.52
Peak level 85.8 %
Track quality 100.0 %
Test CRC C39E89BE
Copy CRC C39E89BE
Copy OK
Track 12
Filename C:\The Conet Project - Recordings of Shortwave Numbers Stations (2001) [FLAC]\Disc 2\12 - 2 Letter 'NU'.wav
Pre-gap length 0:00:01.48
Peak level 87.4 %
Track quality 100.0 %
Test CRC 05070401
Copy CRC 05070401
Copy OK
Track 13
Filename C:\The Conet Project - Recordings of Shortwave Numbers Stations (2001) [FLAC]\Disc 2\13 - 'Strich' (2).wav
Pre-gap length 0:00:01.49
Peak level 87.4 %
Track quality 100.0 %
Test CRC 64CB7883
Copy CRC 64CB7883
Copy OK
Track 14
Filename C:\The Conet Project - Recordings of Shortwave Numbers Stations (2001) [FLAC]\Disc 2\14 - YT.wav
Pre-gap length 0:00:01.49
Peak level 100.0 %
Track quality 100.0 %
Test CRC FDA75397
Copy CRC FDA75397
Copy OK
Track 15
Filename C:\The Conet Project - Recordings of Shortwave Numbers Stations (2001) [FLAC]\Disc 2\15 - 5 Dashes.wav
Pre-gap length 0:00:01.42
Peak level 76.0 %
Track quality 100.0 %
Test CRC 51CCE9DD
Copy CRC 51CCE9DD
Copy OK
Track 16
Filename C:\The Conet Project - Recordings of Shortwave Numbers Stations (2001) [FLAC]\Disc 2\16 - German Man.wav
Pre-gap length 0:00:01.48
Peak level 91.5 %
Track quality 100.0 %
Test CRC 34D20643
Copy CRC 34D20643
Copy OK
Track 17
Filename C:\The Conet Project - Recordings of Shortwave Numbers Stations (2001) [FLAC]\Disc 2\17 - English Man.wav
Pre-gap length 0:00:01.42
Peak level 100.0 %
Track quality 99.9 %
Test CRC B5894E0E
Copy CRC B5894E0E
Copy OK
Track 18
Filename C:\The Conet Project - Recordings of Shortwave Numbers Stations (2001) [FLAC]\Disc 2\18 - English Man + German Lady.wav
Pre-gap length 0:00:01.52
Peak level 100.0 %
Track quality 100.0 %
Test CRC 31099731
Copy CRC 31099731
Copy OK
Track 19
Filename C:\The Conet Project - Recordings of Shortwave Numbers Stations (2001) [FLAC]\Disc 2\19 - German Lady.wav
Pre-gap length 0:00:01.44
Peak level 100.0 %
Track quality 100.0 %
Test CRC 78E4A6FC
Copy CRC 78E4A6FC
Copy OK
Track 20
Filename C:\The Conet Project - Recordings of Shortwave Numbers Stations (2001) [FLAC]\Disc 2\20 - Chinese Numbers.wav
Pre-gap length 0:00:01.45
Peak level 91.6 %
Track quality 99.8 %
Test CRC 8E83F0BA
Copy CRC 8E83F0BA
Copy OK
Track 21
Filename C:\The Conet Project - Recordings of Shortwave Numbers Stations (2001) [FLAC]\Disc 2\21 - Spanish Lady (2).wav
Pre-gap length 0:00:01.41
Peak level 80.7 %
Track quality 100.0 %
Test CRC 6964FC5E
Copy CRC 6964FC5E
Copy OK
Track 22
Filename C:\The Conet Project - Recordings of Shortwave Numbers Stations (2001) [FLAC]\Disc 2\22 - 2 Letter 'MD'.wav
Pre-gap length 0:00:01.40
Peak level 86.7 %
Track quality 100.0 %
Test CRC CCD2F1A8
Copy CRC CCD2F1A8
Copy OK
Track 23
Filename C:\The Conet Project - Recordings of Shortwave Numbers Stations (2001) [FLAC]\Disc 2\23 - English Man (2).wav
Pre-gap length 0:00:01.40
Peak level 99.0 %
Track quality 99.7 %
Test CRC 24EE38B2
Copy CRC 24EE38B2
Copy OK
Track 24
Filename C:\The Conet Project - Recordings of Shortwave Numbers Stations (2001) [FLAC]\Disc 2\24 - German Lady (2).wav
Pre-gap length 0:00:01.38
Peak level 73.0 %
Track quality 99.7 %
Test CRC 4516C86B
Copy CRC 4516C86B
Copy OK
Track 25
Filename C:\The Conet Project - Recordings of Shortwave Numbers Stations (2001) [FLAC]\Disc 2\25 - Phonetic Alphabet - NATO (2).wav
Pre-gap length 0:00:01.44
Peak level 84.9 %
Track quality 100.0 %
Test CRC 7B78093A
Copy CRC 7B78093A
Copy OK
Track 26
Filename C:\The Conet Project - Recordings of Shortwave Numbers Stations (2001) [FLAC]\Disc 2\26 - Phonetic Alphabet - NATO (3).wav
Pre-gap length 0:00:01.48
Peak level 100.0 %
Track quality 100.0 %
Test CRC F6CBE859
Copy CRC F6CBE859
Copy OK
Track 27
Filename C:\The Conet Project - Recordings of Shortwave Numbers Stations (2001) [FLAC]\Disc 2\27 - Nancy Adam Susan.wav
Pre-gap length 0:00:01.42
Peak level 87.6 %
Track quality 99.9 %
Test CRC 3A767937
Copy CRC 3A767937
Copy OK
Track 28
Filename C:\The Conet Project - Recordings of Shortwave Numbers Stations (2001) [FLAC]\Disc 2\28 - Counting 'Control'.wav
Pre-gap length 0:00:01.41
Peak level 66.7 %
Track quality 100.0 %
Test CRC FF716143
Copy CRC FF716143
Copy OK
Track 29
Filename C:\The Conet Project - Recordings of Shortwave Numbers Stations (2001) [FLAC]\Disc 2\29 - Nancy Adam Susan (Male Voice).wav
Pre-gap length 0:00:01.44
Peak level 100.0 %
Track quality 99.9 %
Test CRC AC7A16DB
Copy CRC AC7A16DB
Copy OK
Track 30
Filename C:\The Conet Project - Recordings of Shortwave Numbers Stations (2001) [FLAC]\Disc 2\30 - Cherry Ripe.wav
Pre-gap length 0:00:01.50
Peak level 80.1 %
Track quality 100.0 %
Test CRC B77393F6
Copy CRC B77393F6
Copy OK
Track 31
Filename C:\The Conet Project - Recordings of Shortwave Numbers Stations (2001) [FLAC]\Disc 2\31 - Russian Lady.wav
Pre-gap length 0:00:01.37
Peak level 93.7 %
Track quality 99.9 %
Test CRC 688BE5FD
Copy CRC 688BE5FD
Copy OK
Track 32
Filename C:\The Conet Project - Recordings of Shortwave Numbers Stations (2001) [FLAC]\Disc 2\32 - Russian Man.wav
Pre-gap length 0:00:01.48
Peak level 93.7 %
Track quality 100.0 %
Test CRC 03D9E9C5
Copy CRC 03D9E9C5
Copy OK
Track 33
Filename C:\The Conet Project - Recordings of Shortwave Numbers Stations (2001) [FLAC]\Disc 2\33 - NNN (English; current version).wav
Pre-gap length 0:00:01.42
Peak level 87.7 %
Track quality 100.0 %
Test CRC B97AAB3D
Copy CRC B97AAB3D
Copy OK
Track 34
Filename C:\The Conet Project - Recordings of Shortwave Numbers Stations (2001) [FLAC]\Disc 2\34 - Frank Young Peter.wav
Pre-gap length 0:00:01.48
Peak level 86.5 %
Track quality 99.8 %
Test CRC 8A5C463E
Copy CRC 8A5C463E
Copy OK
Track 35
Filename C:\The Conet Project - Recordings of Shortwave Numbers Stations (2001) [FLAC]\Disc 2\35 - Cherta.wav
Pre-gap length 0:00:01.37
Peak level 85.0 %
Track quality 100.0 %
Test CRC 3B5D2F4A
Copy CRC 3B5D2F4A
Copy OK
Track 36
Filename C:\The Conet Project - Recordings of Shortwave Numbers Stations (2001) [FLAC]\Disc 2\36 - Russian Counting Man.wav
Pre-gap length 0:00:01.45
Peak level 76.6 %
Track quality 100.0 %
Test CRC C52C35A4
Copy CRC C52C35A4
Copy OK
Track 37
Filename C:\The Conet Project - Recordings of Shortwave Numbers Stations (2001) [FLAC]\Disc 2\37 - OLX.wav
Pre-gap length 0:00:01.34
Peak level 67.9 %
Track quality 100.0 %
Test CRC 3D7811A5
Copy CRC 3D7811A5
Copy OK
Track 38
Filename C:\The Conet Project - Recordings of Shortwave Numbers Stations (2001) [FLAC]\Disc 2\38 - 6 Tones.wav
Pre-gap length 0:00:01.48
Peak level 47.2 %
Track quality 100.0 %
Test CRC 1F5F2582
Copy CRC 1F5F2582
Copy OK
Track 39
Filename C:\The Conet Project - Recordings of Shortwave Numbers Stations (2001) [FLAC]\Disc 2\39 - High Pitch Polytone.wav
Pre-gap length 0:00:01.66
Peak level 78.0 %
Track quality 100.0 %
Test CRC 9C07562B
Copy CRC 9C07562B
Copy OK
Track 40
Filename C:\The Conet Project - Recordings of Shortwave Numbers Stations (2001) [FLAC]\Disc 2\40 - High Pitch Polytone (2).wav
Pre-gap length 0:00:01.38
Peak level 55.7 %
Track quality 100.0 %
Test CRC C98F085F
Copy CRC C98F085F
Copy OK
Track 41
Filename C:\The Conet Project - Recordings of Shortwave Numbers Stations (2001) [FLAC]\Disc 2\41 - High Pitch Polytone (3).wav
Pre-gap length 0:00:01.80
Peak level 47.2 %
Track quality 100.0 %
Test CRC 327E51B9
Copy CRC 327E51B9
Copy OK
Track 42
Filename C:\The Conet Project - Recordings of Shortwave Numbers Stations (2001) [FLAC]\Disc 2\42 - High Pitch Polytone (4).wav
Pre-gap length 0:00:01.38
Peak level 73.7 %
Track quality 100.0 %
Test CRC 5AB1C005
Copy CRC 5AB1C005
Copy OK
Track 43
Filename C:\The Conet Project - Recordings of Shortwave Numbers Stations (2001) [FLAC]\Disc 2\43 - Oriental Language.wav
Pre-gap length 0:00:01.42
Peak level 100.0 %
Track quality 100.0 %
Test CRC 7A694313
Copy CRC 7A694313
Copy OK
No errors occurred
End of status report

.cue

REM GENRE Radioplay
REM DATE 1997
REM DISCID 8511032B
REM COMMENT "ExactAudioCopy v0.99pb4"
PERFORMER "The Conet Project"
TITLE "The Conet Project: Recordings of Shortwave Numbers Stations"
FILE "01 - NNN.wav" WAVE
TRACK 01 AUDIO
TITLE "NNN"
PERFORMER "The Conet Project"
INDEX 01 00:00:00
TRACK 02 AUDIO
TITLE "Strich"
PERFORMER "The Conet Project"
INDEX 00 02:54:57
FILE "02 - Strich.wav" WAVE
INDEX 01 00:00:00
TRACK 03 AUDIO
TITLE "DFC37"
PERFORMER "The Conet Project"
INDEX 00 00:33:73
FILE "03 - DFC37.wav" WAVE
INDEX 01 00:00:00
TRACK 04 AUDIO
TITLE "Drums & Trumpets"
PERFORMER "The Conet Project"
INDEX 00 01:53:24
FILE "04 - Drums & Trumpets.wav" WAVE
INDEX 01 00:00:00
TRACK 05 AUDIO
TITLE "NNN (English)"
PERFORMER "The Conet Project"
INDEX 00 02:49:60
FILE "05 - NNN (English).wav" WAVE
INDEX 01 00:00:00
TRACK 06 AUDIO
TITLE "English Lady - 00000 ending"
PERFORMER "The Conet Project"
INDEX 00 01:45:57
FILE "06 - English Lady - 00000 ending.wav" WAVE
INDEX 01 00:00:00
TRACK 07 AUDIO
TITLE "NNN (German)"
PERFORMER "The Conet Project"
INDEX 00 02:08:23
FILE "07 - NNN (German).wav" WAVE
INDEX 01 00:00:00
TRACK 08 AUDIO
TITLE "The Russian Man ('D-va' Northern Russian Voice)"
PERFORMER "The Conet Project"
INDEX 00 00:58:47
FILE "08 - The Russian Man ('D-va' Northern Russian Voice).wav" WAVE
INDEX 01 00:00:00
TRACK 09 AUDIO
TITLE "Phonetic Alphabet - NATO"
PERFORMER "The Conet Project"
INDEX 00 01:32:23
FILE "09 - Phonetic Alphabet - NATO.wav" WAVE
INDEX 01 00:00:00
TRACK 10 AUDIO
TITLE "Spanish Lady"
PERFORMER "The Conet Project"
INDEX 00 00:47:11
FILE "10 - Spanish Lady.wav" WAVE
INDEX 01 00:00:00
TRACK 11 AUDIO
TITLE "'Strich' (English)"
PERFORMER "The Conet Project"
INDEX 00 01:05:21
FILE "11 - 'Strich' (English).wav" WAVE
INDEX 01 00:00:00
TRACK 12 AUDIO
TITLE "2 Letter 'NU'"
PERFORMER "The Conet Project"
INDEX 00 00:28:67
FILE "12 - 2 Letter 'NU'.wav" WAVE
INDEX 01 00:00:00
TRACK 13 AUDIO
TITLE "'Strich' (2)"
PERFORMER "The Conet Project"
INDEX 00 01:10:05
FILE "13 - 'Strich' (2).wav" WAVE
INDEX 01 00:00:00
TRACK 14 AUDIO
TITLE "YT"
PERFORMER "The Conet Project"
INDEX 00 00:36:59
FILE "14 - YT.wav" WAVE
INDEX 01 00:00:00
TRACK 15 AUDIO
TITLE "5 Dashes"
PERFORMER "The Conet Project"
INDEX 00 03:33:03
FILE "15 - 5 Dashes.wav" WAVE
INDEX 01 00:00:00
TRACK 16 AUDIO
TITLE "German Man"
PERFORMER "The Conet Project"
INDEX 00 01:38:06
FILE "16 - German Man.wav" WAVE
INDEX 01 00:00:00
TRACK 17 AUDIO
TITLE "English Man"
PERFORMER "The Conet Project"
INDEX 00 01:43:68
FILE "17 - English Man.wav" WAVE
INDEX 01 00:00:00
TRACK 18 AUDIO
TITLE "English Man + German Lady"
PERFORMER "The Conet Project"
INDEX 00 04:56:26
FILE "18 - English Man + German Lady.wav" WAVE
INDEX 01 00:00:00
TRACK 19 AUDIO
TITLE "German Lady"
PERFORMER "The Conet Project"
INDEX 00 01:34:60
FILE "19 - German Lady.wav" WAVE
INDEX 01 00:00:00
TRACK 20 AUDIO
TITLE "Chinese Numbers"
PERFORMER "The Conet Project"
INDEX 00 01:41:23
FILE "20 - Chinese Numbers.wav" WAVE
INDEX 01 00:00:00
TRACK 21 AUDIO
TITLE "Spanish Lady (2)"
PERFORMER "The Conet Project"
INDEX 00 01:12:22
FILE "21 - Spanish Lady (2).wav" WAVE
INDEX 01 00:00:00
TRACK 22 AUDIO
TITLE "2 Letter 'MD'"
PERFORMER "The Conet Project"
INDEX 00 04:23:47
FILE "22 - 2 Letter 'MD'.wav" WAVE
INDEX 01 00:00:00
TRACK 23 AUDIO
TITLE "English Man (2)"
PERFORMER "The Conet Project"
INDEX 00 01:36:50
FILE "23 - English Man (2).wav" WAVE
INDEX 01 00:00:00
TRACK 24 AUDIO
TITLE "German Lady (2)"
PERFORMER "The Conet Project"
INDEX 00 01:11:73
FILE "24 - German Lady (2).wav" WAVE
INDEX 01 00:00:00
TRACK 25 AUDIO
TITLE "Phonetic Alphabet - NATO (2)"
PERFORMER "The Conet Project"
INDEX 00 00:45:53
FILE "25 - Phonetic Alphabet - NATO (2).wav" WAVE
INDEX 01 00:00:00
TRACK 26 AUDIO
TITLE "Phonetic Alphabet - NATO (3)"
PERFORMER "The Conet Project"
INDEX 00 00:52:64
FILE "26 - Phonetic Alphabet - NATO (3).wav" WAVE
INDEX 01 00:00:00
TRACK 27 AUDIO
TITLE "Nancy Adam Susan"
PERFORMER "The Conet Project"
INDEX 00 02:23:47
FILE "27 - Nancy Adam Susan.wav" WAVE
INDEX 01 00:00:00
TRACK 28 AUDIO
TITLE "Counting 'Control'"
PERFORMER "The Conet Project"
INDEX 00 03:19:12
FILE "28 - Counting 'Control'.wav" WAVE
INDEX 01 00:00:00
TRACK 29 AUDIO
TITLE "Nancy Adam Susan (Male Voice)"
PERFORMER "The Conet Project"
INDEX 00 01:16:29
FILE "29 - Nancy Adam Susan (Male Voice).wav" WAVE
INDEX 01 00:00:00
TRACK 30 AUDIO
TITLE "Cherry Ripe"
PERFORMER "The Conet Project"
INDEX 00 02:42:40
FILE "30 - Cherry Ripe.wav" WAVE
INDEX 01 00:00:00
TRACK 31 AUDIO
TITLE "Russian Lady"
PERFORMER "The Conet Project"
INDEX 00 01:32:29
FILE "31 - Russian Lady.wav" WAVE
INDEX 01 00:00:00
TRACK 32 AUDIO
TITLE "Russian Man"
PERFORMER "The Conet Project"
INDEX 00 01:55:55
FILE "32 - Russian Man.wav" WAVE
INDEX 01 00:00:00
TRACK 33 AUDIO
TITLE "NNN (English; current version)"
PERFORMER "The Conet Project"
INDEX 00 00:35:42
FILE "33 - NNN (English; current version).wav" WAVE
INDEX 01 00:00:00
TRACK 34 AUDIO
TITLE "Frank Young Peter"
PERFORMER "The Conet Project"
INDEX 00 01:52:15
FILE "34 - Frank Young Peter.wav" WAVE
INDEX 01 00:00:00
TRACK 35 AUDIO
TITLE "Cherta"
PERFORMER "The Conet Project"
INDEX 00 00:57:54
FILE "35 - Cherta.wav" WAVE
INDEX 01 00:00:00
TRACK 36 AUDIO
TITLE "Russian Counting Man"
PERFORMER "The Conet Project"
INDEX 00 01:03:03
FILE "36 - Russian Counting Man.wav" WAVE
INDEX 01 00:00:00
TRACK 37 AUDIO
TITLE "OLX"
PERFORMER "The Conet Project"
INDEX 00 00:56:29
FILE "37 - OLX.wav" WAVE
INDEX 01 00:00:00
TRACK 38 AUDIO
TITLE "6 Tones"
PERFORMER "The Conet Project"
INDEX 00 02:13:54
FILE "38 - 6 Tones.wav" WAVE
INDEX 01 00:00:00
TRACK 39 AUDIO
TITLE "High Pitch Polytone"
PERFORMER "The Conet Project"
INDEX 00 00:55:13
FILE "39 - High Pitch Polytone.wav" WAVE
INDEX 01 00:00:00
TRACK 40 AUDIO
TITLE "High Pitch Polytone (2)"
PERFORMER "The Conet Project"
INDEX 00 02:00:66
FILE "40 - High Pitch Polytone (2).wav" WAVE
INDEX 01 00:00:00
TRACK 41 AUDIO
TITLE "High Pitch Polytone (3)"
PERFORMER "The Conet Project"
INDEX 00 00:28:67
FILE "41 - High Pitch Polytone (3).wav" WAVE
INDEX 01 00:00:00
TRACK 42 AUDIO
TITLE "High Pitch Polytone (4)"
PERFORMER "The Conet Project"
INDEX 00 01:15:37
FILE "42 - High Pitch Polytone (4).wav" WAVE
INDEX 01 00:00:00
TRACK 43 AUDIO
TITLE "Oriental Language"
PERFORMER "The Conet Project"
INDEX 00 00:58:30
FILE "43 - Oriental Language.wav" WAVE
INDEX 01 00:00:00

Disc 3

Продолжительность: 1:11:12
Трэклист:
01. Ready Ready (2:03)
02. Iran/Iraq Jamming Efficacy Testing (1:00)
03. English Lady (1:16)
04. English Lady (2) (0:34)
05. English Man Version 1 (0:34)
06. English Man Version 3 (0:48)
07. English Man (0:58)
08. Magnetic Fields (3:49)
09. Magnetic Fields (2) (1:30)
10. Oblique (1:24)
11. NNN (0:35)
12. 5 Dashes (4:17)
13. 2 Letter 'KG' (1:49)
14. 4 Figure Counting (10 Rough Tones) (2:36)
15. 2 Voices in one transmission (3:29)
16. Tyrolean Music Station (7:18)
17. 3 Note I.S. (0:46)
18. 10 Rough Tones (1:33)
19. Achtung! (0:29)
20. 'A' (1:24)
21. Voice Sample (1-10) (0:12)
22. Rapid Dots (0:59)
23. Strich (1:06)
24. Hier ist DFC Seben und Dreizig (3:20)
25. 2 Letter 'PN' (2:34)
26. Sample Count (0:18)
27. 2 Letter 'VO' (2:10)
28. 2 Letter 'HK' (0:41)
29. 2 Letter 'DM' (4:01)
30. 8 Note Rising Scale (1:11)
31. Spruchnummer 1 (0:55)
32. Spruchnummer 4 (0:48)
33. Random Pop (1:05)
34. Nomer 101 (2:52)
35. Okno Okno Okno (0:35)
36. Nomer 198 (3:22)
37. 723 Papaqui (1:23)
38. 298 (1:53)
39. 815 (1:24)
40. 167 (1:53)
41. Moscow Coup Attempt (0:20)

Log

Exact Audio Copy V0.99 prebeta 4 from 23. January 2008
EAC extraction logfile from 5. January 2009, 13:55
Various / The Conet Project: Recordings of Shortwave Numbers Stations (disc 3)
Used drive : _NEC DVD_RW ND-3540A Adapter: 0 ID: 0
Read mode : Secure
Utilize accurate stream : Yes
Defeat audio cache : Yes
Make use of C2 pointers : No
Read offset correction : 48
Overread into Lead-In and Lead-Out : No
Fill up missing offset samples with silence : Yes
Delete leading and trailing silent blocks : No
Null samples used in CRC calculations : Yes
Used interface : Installed external ASPI interface
Gap handling : Appended to previous track
Used output format : Internal WAV Routines
Sample format : 44.100 Hz; 16 Bit; Stereo
TOC of the extracted CD
Track | Start | Length | Start sector | End sector
---------------------------------------------------------
1 | 0:00.00 | 2:02.73 | 0 | 9222
2 | 2:02.73 | 1:00.00 | 9223 | 13722
3 | 3:02.73 | 1:16.20 | 13723 | 19442
4 | 4:19.18 | 0:33.50 | 19443 | 21967
5 | 4:52.68 | 0:33.47 | 21968 | 24489
6 | 5:26.40 | 0:48.23 | 24490 | 28112
7 | 6:14.63 | 0:57.47 | 28113 | 32434
8 | 7:12.35 | 3:49.30 | 32435 | 49639
9 | 11:01.65 | 1:30.10 | 49640 | 56399
10 | 12:32.00 | 1:24.00 | 56400 | 62699
11 | 13:56.00 | 0:34.60 | 62700 | 65309
12 | 14:30.60 | 4:16.60 | 65310 | 84569
13 | 18:47.45 | 1:49.20 | 84570 | 92764
14 | 20:36.65 | 2:35.48 | 92765 | 104437
15 | 23:12.38 | 3:28.57 | 104438 | 120094
16 | 26:41.20 | 7:17.40 | 120095 | 152909
17 | 33:58.60 | 0:45.70 | 152910 | 156354
18 | 34:44.55 | 1:33.10 | 156355 | 163339
19 | 36:17.65 | 0:28.50 | 163340 | 165489
20 | 36:46.40 | 1:23.38 | 165490 | 171752
21 | 38:10.03 | 0:12.27 | 171753 | 172679
22 | 38:22.30 | 0:58.60 | 172680 | 177089
23 | 39:21.15 | 1:06.05 | 177090 | 182044
24 | 40:27.20 | 3:19.40 | 182045 | 197009
25 | 43:46.60 | 2:34.23 | 197010 | 208582
26 | 46:21.08 | 0:18.17 | 208583 | 209949
27 | 46:39.25 | 2:09.50 | 209950 | 219674
28 | 48:49.00 | 0:41.30 | 219675 | 222779
29 | 49:30.30 | 4:00.55 | 222780 | 240834
30 | 53:31.10 | 1:11.00 | 240835 | 246159
31 | 54:42.10 | 0:55.10 | 246160 | 250294
32 | 55:37.20 | 0:48.20 | 250295 | 253914
33 | 56:25.40 | 1:04.70 | 253915 | 258784
34 | 57:30.35 | 2:51.60 | 258785 | 271669
35 | 60:22.20 | 0:35.03 | 271670 | 274297
36 | 60:57.23 | 3:21.72 | 274298 | 289444
37 | 64:19.20 | 1:23.10 | 289445 | 295679
38 | 65:42.30 | 1:53.35 | 295680 | 304189
39 | 67:35.65 | 1:24.15 | 304190 | 310504
40 | 69:00.05 | 1:52.70 | 310505 | 318974
41 | 70:53.00 | 0:19.55 | 318975 | 320454
Track 1
Filename C:\The Conet Project - Recordings of Shortwave Numbers Stations (2001) [FLAC]\Disc 3\01 - Ready Ready.wav
Pre-gap length 0:00:02.00
Peak level 67.8 %
Track quality 100.0 %
Test CRC F7F928CE
Copy CRC F7F928CE
Copy OK
Track 2
Filename C:\The Conet Project - Recordings of Shortwave Numbers Stations (2001) [FLAC]\Disc 3\02 - Iraq Jamming Efficacy Testing.wav
Pre-gap length 0:00:01.49
Peak level 58.8 %
Track quality 100.0 %
Test CRC C52C753F
Copy CRC C52C753F
Copy OK
Track 3
Filename C:\The Conet Project - Recordings of Shortwave Numbers Stations (2001) [FLAC]\Disc 3\03 - English Lady.wav
Pre-gap length 0:00:01.52
Peak level 78.9 %
Track quality 100.0 %
Test CRC A07A8CD2
Copy CRC A07A8CD2
Copy OK
Track 4
Filename C:\The Conet Project - Recordings of Shortwave Numbers Stations (2001) [FLAC]\Disc 3\04 - English Lady (2).wav
Pre-gap length 0:00:01.56
Peak level 42.8 %
Track quality 100.0 %
Test CRC BD2FC3C5
Copy CRC BD2FC3C5
Copy OK
Track 5
Filename C:\The Conet Project - Recordings of Shortwave Numbers Stations (2001) [FLAC]\Disc 3\05 - English Man Version 1.wav
Pre-gap length 0:00:01.52
Peak level 87.5 %
Track quality 100.0 %
Test CRC 9316FD95
Copy CRC 9316FD95
Copy OK
Track 6
Filename C:\The Conet Project - Recordings of Shortwave Numbers Stations (2001) [FLAC]\Disc 3\06 - English Man Version 3.wav
Pre-gap length 0:00:01.52
Peak level 74.4 %
Track quality 100.0 %
Test CRC 565D4CC1
Copy CRC 565D4CC1
Copy OK
Track 7
Filename C:\The Conet Project - Recordings of Shortwave Numbers Stations (2001) [FLAC]\Disc 3\07 - English Man.wav
Pre-gap length 0:00:01.53
Peak level 72.1 %
Track quality 100.0 %
Test CRC 5296C99E
Copy CRC 5296C99E
Copy OK
Track 8
Filename C:\The Conet Project - Recordings of Shortwave Numbers Stations (2001) [FLAC]\Disc 3\08 - Magnetic Fields.wav
Pre-gap length 0:00:01.54
Peak level 73.0 %
Track quality 100.0 %
Test CRC 50F4E598
Copy CRC 50F4E598
Copy OK
Track 9
Filename C:\The Conet Project - Recordings of Shortwave Numbers Stations (2001) [FLAC]\Disc 3\09 - Magnetic Fields (2).wav
Pre-gap length 0:00:01.50
Peak level 71.5 %
Track quality 100.0 %
Test CRC 83A82D19
Copy CRC 83A82D19
Copy OK
Track 10
Filename C:\The Conet Project - Recordings of Shortwave Numbers Stations (2001) [FLAC]\Disc 3\10 - Oblique.wav
Pre-gap length 0:00:01.50
Peak level 85.6 %
Track quality 99.8 %
Test CRC 08FC423C
Copy CRC 08FC423C
Copy OK
Track 11
Filename C:\The Conet Project - Recordings of Shortwave Numbers Stations (2001) [FLAC]\Disc 3\11 - NNN.wav
Pre-gap length 0:00:01.50
Peak level 61.5 %
Track quality 100.0 %
Test CRC 0B30BCF2
Copy CRC 0B30BCF2
Copy OK
Track 12
Filename C:\The Conet Project - Recordings of Shortwave Numbers Stations (2001) [FLAC]\Disc 3\12 - 5 Dashes.wav
Pre-gap length 0:00:01.41
Peak level 79.8 %
Track quality 100.0 %
Test CRC 2AF6C114
Copy CRC 2AF6C114
Copy OK
Track 13
Filename C:\The Conet Project - Recordings of Shortwave Numbers Stations (2001) [FLAC]\Disc 3\13 - 2 Letter 'KG'.wav
Pre-gap length 0:00:01.44
Peak level 78.9 %
Track quality 99.9 %
Test CRC 408813B6
Copy CRC 408813B6
Copy OK
Track 14
Filename C:\The Conet Project - Recordings of Shortwave Numbers Stations (2001) [FLAC]\Disc 3\14 - 4 Figure Counting (10 Rough Tones).wav
Pre-gap length 0:00:01.45
Peak level 88.2 %
Track quality 100.0 %
Test CRC 274FAFE8
Copy CRC 274FAFE8
Copy OK
Track 15
Filename C:\The Conet Project - Recordings of Shortwave Numbers Stations (2001) [FLAC]\Disc 3\15 - 2 Voices in one transmission.wav
Pre-gap length 0:00:01.54
Peak level 71.8 %
Track quality 100.0 %
Test CRC 606C8A8A
Copy CRC 606C8A8A
Copy OK
Track 16
Filename C:\The Conet Project - Recordings of Shortwave Numbers Stations (2001) [FLAC]\Disc 3\16 - Tyrolean Music Station.wav
Pre-gap length 0:00:01.16
Peak level 95.8 %
Track quality 100.0 %
Test CRC 183270BA
Copy CRC 183270BA
Copy OK
Track 17
Filename C:\The Conet Project - Recordings of Shortwave Numbers Stations (2001) [FLAC]\Disc 3\17 - 3 Note I.S..wav
Pre-gap length 0:00:01.44
Peak level 71.5 %
Track quality 100.0 %
Test CRC B0AA2DD8
Copy CRC B0AA2DD8
Copy OK
Track 18
Filename C:\The Conet Project - Recordings of Shortwave Numbers Stations (2001) [FLAC]\Disc 3\18 - 10 Rough Tones.wav
Pre-gap length 0:00:01.48
Peak level 94.6 %
Track quality 100.0 %
Test CRC D2361C83
Copy CRC D2361C83
Copy OK
Track 19
Filename C:\The Conet Project - Recordings of Shortwave Numbers Stations (2001) [FLAC]\Disc 3\19 - Achtung!.wav
Pre-gap length 0:00:01.52
Peak level 100.0 %
Track quality 100.0 %
Test CRC 56003F6F
Copy CRC 56003F6F
Copy OK
Track 20
Filename C:\The Conet Project - Recordings of Shortwave Numbers Stations (2001) [FLAC]\Disc 3\20 - A.wav
Pre-gap length 0:00:01.42
Peak level 72.4 %
Track quality 100.0 %
Test CRC 1CCA3D0D
Copy CRC 1CCA3D0D
Copy OK
Track 21
Filename C:\The Conet Project - Recordings of Shortwave Numbers Stations (2001) [FLAC]\Disc 3\21 - Voice Sample (1-10).wav
Pre-gap length 0:00:01.52
Peak level 64.2 %
Track quality 100.0 %
Test CRC 31A1660D
Copy CRC 31A1660D
Copy OK
Track 22
Filename C:\The Conet Project - Recordings of Shortwave Numbers Stations (2001) [FLAC]\Disc 3\22 - Rapid Dots.wav
Pre-gap length 0:00:01.45
Peak level 94.9 %
Track quality 100.0 %
Test CRC 92250C52
Copy CRC 92250C52
Copy OK
Track 23
Filename C:\The Conet Project - Recordings of Shortwave Numbers Stations (2001) [FLAC]\Disc 3\23 - Strich.wav
Pre-gap length 0:00:01.42
Peak level 100.0 %
Track quality 99.8 %
Test CRC E332B808
Copy CRC E332B808
Copy OK
Track 24
Filename C:\The Conet Project - Recordings of Shortwave Numbers Stations (2001) [FLAC]\Disc 3\24 - Hier ist DFC Seben und Dreizig.wav
Pre-gap length 0:00:01.46
Peak level 100.0 %
Track quality 100.0 %
Test CRC D0F08F06
Copy CRC D0F08F06
Copy OK
Track 25
Filename C:\The Conet Project - Recordings of Shortwave Numbers Stations (2001) [FLAC]\Disc 3\25 - 2 Letter 'PN'.wav
Pre-gap length 0:00:01.44
Peak level 69.9 %
Track quality 100.0 %
Test CRC B17AB332
Copy CRC B17AB332
Copy OK
Track 26
Filename C:\The Conet Project - Recordings of Shortwave Numbers Stations (2001) [FLAC]\Disc 3\26 - Sample Count.wav
Pre-gap length 0:00:01.45
Peak level 88.6 %
Track quality 100.0 %
Test CRC 737234CB
Copy CRC 737234CB
Copy OK
Track 27
Filename C:\The Conet Project - Recordings of Shortwave Numbers Stations (2001) [FLAC]\Disc 3\27 - 2 Letter 'VO'.wav
Pre-gap length 0:00:01.46
Peak level 100.0 %
Track quality 100.0 %
Test CRC BA6206C5
Copy CRC BA6206C5
Copy OK
Track 28
Filename C:\The Conet Project - Recordings of Shortwave Numbers Stations (2001) [FLAC]\Disc 3\28 - 2 Letter 'HK'.wav
Pre-gap length 0:00:01.45
Peak level 85.4 %
Track quality 100.0 %
Test CRC 48E5DF10
Copy CRC 48E5DF10
Copy OK
Track 29
Filename C:\The Conet Project - Recordings of Shortwave Numbers Stations (2001) [FLAC]\Disc 3\29 - 2 Letter 'DM'.wav
Pre-gap length 0:00:01.40
Peak level 77.8 %
Track quality 99.9 %
Test CRC 37327465
Copy CRC 37327465
Copy OK
Track 30
Filename C:\The Conet Project - Recordings of Shortwave Numbers Stations (2001) [FLAC]\Disc 3\30 - 8 Note Rising Scale.wav
Pre-gap length 0:00:01.38
Peak level 83.0 %
Track quality 100.0 %
Test CRC 40AB40F6
Copy CRC 40AB40F6
Copy OK
Track 31
Filename C:\The Conet Project - Recordings of Shortwave Numbers Stations (2001) [FLAC]\Disc 3\31 - Spruchnummer 1.wav
Pre-gap length 0:00:01.44
Peak level 100.0 %
Track quality 99.8 %
Test CRC E902DD45
Copy CRC E902DD45
Copy OK
Track 32
Filename C:\The Conet Project - Recordings of Shortwave Numbers Stations (2001) [FLAC]\Disc 3\32 - Spruchnummer 4.wav
Pre-gap length 0:00:01.36
Peak level 100.0 %
Track quality 100.0 %
Test CRC 9A699457
Copy CRC 9A699457
Copy OK
Track 33
Filename C:\The Conet Project - Recordings of Shortwave Numbers Stations (2001) [FLAC]\Disc 3\33 - Random Pop.wav
Pre-gap length 0:00:01.65
Peak level 99.9 %
Track quality 100.0 %
Test CRC E24FA3B6
Copy CRC E24FA3B6
Copy OK
Track 34
Filename C:\The Conet Project - Recordings of Shortwave Numbers Stations (2001) [FLAC]\Disc 3\34 - Nomer 101.wav
Pre-gap length 0:00:01.53
Peak level 95.5 %
Track quality 100.0 %
Test CRC 3E39F4CB
Copy CRC 3E39F4CB
Copy OK
Track 35
Filename C:\The Conet Project - Recordings of Shortwave Numbers Stations (2001) [FLAC]\Disc 3\35 - Okno Okno Okno.wav
Pre-gap length 0:00:01.49
Peak level 96.4 %
Track quality 100.0 %
Test CRC F3C9DC9F
Copy CRC F3C9DC9F
Copy OK
Track 36
Filename C:\The Conet Project - Recordings of Shortwave Numbers Stations (2001) [FLAC]\Disc 3\36 - Nomer 198.wav
Pre-gap length 0:00:01.44
Peak level 72.1 %
Track quality 100.0 %
Test CRC A4CCB893
Copy CRC A4CCB893
Copy OK
Track 37
Filename C:\The Conet Project - Recordings of Shortwave Numbers Stations (2001) [FLAC]\Disc 3\37 - 723 Papaqui.wav
Pre-gap length 0:00:01.38
Peak level 87.8 %
Track quality 100.0 %
Test CRC 5AACEEFF
Copy CRC 5AACEEFF
Copy OK
Track 38
Filename C:\The Conet Project - Recordings of Shortwave Numbers Stations (2001) [FLAC]\Disc 3\38 - 298.wav
Pre-gap length 0:00:01.52
Peak level 71.0 %
Track quality 100.0 %
Test CRC 8B696186
Copy CRC 8B696186
Copy OK
Track 39
Filename C:\The Conet Project - Recordings of Shortwave Numbers Stations (2001) [FLAC]\Disc 3\39 - 815.wav
Pre-gap length 0:00:01.34
Peak level 75.9 %
Track quality 100.0 %
Test CRC 2E9D57EB
Copy CRC 2E9D57EB
Copy OK
Track 40
Filename C:\The Conet Project - Recordings of Shortwave Numbers Stations (2001) [FLAC]\Disc 3\40 - 167.wav
Pre-gap length 0:00:01.42
Peak level 94.9 %
Track quality 100.0 %
Test CRC 1FB77C77
Copy CRC 1FB77C77
Copy OK
Track 41
Filename C:\The Conet Project - Recordings of Shortwave Numbers Stations (2001) [FLAC]\Disc 3\41 - Moscow Coup Attempt.wav
Pre-gap length 0:00:01.32
Peak level 66.5 %
Track quality 100.0 %
Test CRC FC5E2797
Copy CRC FC5E2797
Copy OK
No errors occurred
End of status report

.cue

REM GENRE Radioplay
REM DATE 1997
REM DISCID 5710B029
REM COMMENT "ExactAudioCopy v0.99pb4"
PERFORMER "The Conet Project"
TITLE "The Conet Project: Recordings of Shortwave Numbers Stations (disc 3)"
FILE "01 - Ready Ready.wav" WAVE
TRACK 01 AUDIO
TITLE "Ready Ready"
PERFORMER "The Conet Project"
INDEX 01 00:00:00
TRACK 02 AUDIO
TITLE "Iraq Jamming Efficacy Testing"
PERFORMER "The Conet Project"
INDEX 00 02:01:36
FILE "02 - Iraq Jamming Efficacy Testing.wav" WAVE
INDEX 01 00:00:00
TRACK 03 AUDIO
TITLE "English Lady"
PERFORMER "The Conet Project"
INDEX 00 00:58:36
FILE "03 - English Lady.wav" WAVE
INDEX 01 00:00:00
TRACK 04 AUDIO
TITLE "English Lady (2)"
PERFORMER "The Conet Project"
INDEX 00 01:14:53
FILE "04 - English Lady (2).wav" WAVE
INDEX 01 00:00:00
TRACK 05 AUDIO
TITLE "English Man Version 1"
PERFORMER "The Conet Project"
INDEX 00 00:32:11
FILE "05 - English Man Version 1.wav" WAVE
INDEX 01 00:00:00
TRACK 06 AUDIO
TITLE "English Man Version 3"
PERFORMER "The Conet Project"
INDEX 00 00:32:08
FILE "06 - English Man Version 3.wav" WAVE
INDEX 01 00:00:00
TRACK 07 AUDIO
TITLE "English Man"
PERFORMER "The Conet Project"
INDEX 00 00:46:58
FILE "07 - English Man.wav" WAVE
INDEX 01 00:00:00
TRACK 08 AUDIO
TITLE "Magnetic Fields"
PERFORMER "The Conet Project"
INDEX 00 00:56:06
FILE "08 - Magnetic Fields.wav" WAVE
INDEX 01 00:00:00
TRACK 09 AUDIO
TITLE "Magnetic Fields (2)"
PERFORMER "The Conet Project"
INDEX 00 03:47:67
FILE "09 - Magnetic Fields (2).wav" WAVE
INDEX 01 00:00:00
TRACK 10 AUDIO
TITLE "Oblique"
PERFORMER "The Conet Project"
INDEX 00 01:28:47
FILE "10 - Oblique.wav" WAVE
INDEX 01 00:00:00
TRACK 11 AUDIO
TITLE "NNN"
PERFORMER "The Conet Project"
INDEX 00 01:22:37
FILE "11 - NNN.wav" WAVE
INDEX 01 00:00:00
TRACK 12 AUDIO
TITLE "5 Dashes"
PERFORMER "The Conet Project"
INDEX 00 00:33:29
FILE "12 - 5 Dashes.wav" WAVE
INDEX 01 00:00:00
TRACK 13 AUDIO
TITLE "2 Letter 'KG'"
PERFORMER "The Conet Project"
INDEX 00 04:15:27
FILE "13 - 2 Letter 'KG'.wav" WAVE
INDEX 01 00:00:00
TRACK 14 AUDIO
TITLE "4 Figure Counting (10 Rough Tones)"
PERFORMER "The Conet Project"
INDEX 00 01:47:61
FILE "14 - 4 Figure Counting (10 Rough Tones).wav" WAVE
INDEX 01 00:00:00
TRACK 15 AUDIO
TITLE "2 Voices in one transmission"
PERFORMER "The Conet Project"
INDEX 00 02:34:07
FILE "15 - 2 Voices in one transmission.wav" WAVE
INDEX 01 00:00:00
TRACK 16 AUDIO
TITLE "Tyrolean Music Station"
PERFORMER "The Conet Project"
INDEX 00 03:27:45
FILE "16 - Tyrolean Music Station.wav" WAVE
INDEX 01 00:00:00
TRACK 17 AUDIO
TITLE "3 Note I.S."
PERFORMER "The Conet Project"
INDEX 00 07:16:07
FILE "17 - 3 Note I.S..wav" WAVE
INDEX 01 00:00:00
TRACK 18 AUDIO
TITLE "10 Rough Tones"
PERFORMER "The Conet Project"
INDEX 00 00:44:34
FILE "18 - 10 Rough Tones.wav" WAVE
INDEX 01 00:00:00
TRACK 19 AUDIO
TITLE "Achtung!"
PERFORMER "The Conet Project"
INDEX 00 01:31:46
FILE "19 - Achtung!.wav" WAVE
INDEX 01 00:00:00
TRACK 20 AUDIO
TITLE "A"
PERFORMER "The Conet Project"
INDEX 00 00:27:18
FILE "20 - A.wav" WAVE
INDEX 01 00:00:00
TRACK 21 AUDIO
TITLE "Voice Sample (1-10)"
PERFORMER "The Conet Project"
INDEX 00 01:21:74
FILE "21 - Voice Sample (1-10).wav" WAVE
INDEX 01 00:00:00
TRACK 22 AUDIO
TITLE "Rapid Dots"
PERFORMER "The Conet Project"
INDEX 00 00:10:68
FILE "22 - Rapid Dots.wav" WAVE
INDEX 01 00:00:00
TRACK 23 AUDIO
TITLE "Strich"
PERFORMER "The Conet Project"
INDEX 00 00:57:28
FILE "23 - Strich.wav" WAVE
INDEX 01 00:00:00
TRACK 24 AUDIO
TITLE "Hier ist DFC Seben und Dreizig"
PERFORMER "The Conet Project"
INDEX 00 01:04:45
FILE "24 - Hier ist DFC Seben und Dreizig.wav" WAVE
INDEX 01 00:00:00
TRACK 25 AUDIO
TITLE "2 Letter 'PN'"
PERFORMER "The Conet Project"
INDEX 00 03:18:07
FILE "25 - 2 Letter 'PN'.wav" WAVE
INDEX 01 00:00:00
TRACK 26 AUDIO
TITLE "Sample Count"
PERFORMER "The Conet Project"
INDEX 00 02:32:64
FILE "26 - Sample Count.wav" WAVE
INDEX 01 00:00:00
TRACK 27 AUDIO
TITLE "2 Letter 'VO'"
PERFORMER "The Conet Project"
INDEX 00 00:16:57
FILE "27 - 2 Letter 'VO'.wav" WAVE
INDEX 01 00:00:00
TRACK 28 AUDIO
TITLE "2 Letter 'HK'"
PERFORMER "The Conet Project"
INDEX 00 02:08:16
FILE "28 - 2 Letter 'HK'.wav" WAVE
INDEX 01 00:00:00
TRACK 29 AUDIO
TITLE "2 Letter 'DM'"
PERFORMER "The Conet Project"
INDEX 00 00:40:00
FILE "29 - 2 Letter 'DM'.wav" WAVE
INDEX 01 00:00:00
TRACK 30 AUDIO
TITLE "8 Note Rising Scale"
PERFORMER "The Conet Project"
INDEX 00 03:59:26
FILE "30 - 8 Note Rising Scale.wav" WAVE
INDEX 01 00:00:00
TRACK 31 AUDIO
TITLE "Spruchnummer 1"
PERFORMER "The Conet Project"
INDEX 00 01:09:42
FILE "31 - Spruchnummer 1.wav" WAVE
INDEX 01 00:00:00
TRACK 32 AUDIO
TITLE "Spruchnummer 4"
PERFORMER "The Conet Project"
INDEX 00 00:53:58
FILE "32 - Spruchnummer 4.wav" WAVE
INDEX 01 00:00:00
TRACK 33 AUDIO
TITLE "Random Pop"
PERFORMER "The Conet Project"
INDEX 00 00:46:46
FILE "33 - Random Pop.wav" WAVE
INDEX 01 00:00:00
TRACK 34 AUDIO
TITLE "Nomer 101"
PERFORMER "The Conet Project"
INDEX 00 01:03:30
FILE "34 - Nomer 101.wav" WAVE
INDEX 01 00:00:00
TRACK 35 AUDIO
TITLE "Okno Okno Okno"
PERFORMER "The Conet Project"
INDEX 00 02:50:23
FILE "35 - Okno Okno Okno.wav" WAVE
INDEX 01 00:00:00
TRACK 36 AUDIO
TITLE "Nomer 198"
PERFORMER "The Conet Project"
INDEX 00 00:33:45
FILE "36 - Nomer 198.wav" WAVE
INDEX 01 00:00:00
TRACK 37 AUDIO
TITLE "723 Papaqui"
PERFORMER "The Conet Project"
INDEX 00 03:20:43
FILE "37 - 723 Papaqui.wav" WAVE
INDEX 01 00:00:00
TRACK 38 AUDIO
TITLE "298"
PERFORMER "The Conet Project"
INDEX 00 01:21:46
FILE "38 - 298.wav" WAVE
INDEX 01 00:00:00
TRACK 39 AUDIO
TITLE "815"
PERFORMER "The Conet Project"
INDEX 00 01:52:09
FILE "39 - 815.wav" WAVE
INDEX 01 00:00:00
TRACK 40 AUDIO
TITLE "167"
PERFORMER "The Conet Project"
INDEX 00 01:22:58
FILE "40 - 167.wav" WAVE
INDEX 01 00:00:00
TRACK 41 AUDIO
TITLE "Moscow Coup Attempt"
PERFORMER "The Conet Project"
INDEX 00 01:51:46
FILE "41 - Moscow Coup Attempt.wav" WAVE
INDEX 01 00:00:00

Disc 4

Продолжительность: 1:14:45
Трэклист:
01. Russian Man Complete (3:37)
02. YT (2:50)
03. 555 Konec (0:34)
04. Preska (0:24)
05. Cherta (0:26)
06. Count in Russian (0:39)
07. Count in Russian (2) (2:03)
08. 1-10 Announcement (1:03)
09. 1-10 Announcement (2) (0:50)
10. Counting in Polish (1:12)
11. Konec Konec (2:43)
12. Pozor (0:48)
13. Russian Lady test count and message (2:15)
14. Russian Man (4:10)
15. Spanish Lady (2 finals) (1:47)
16. Spanish Counting (0:22)
17. Spanish Counting (2) (0:24)
18. Spanish Man (2:20)
19. Spanish Lady (1:17)
20. Spanish Lady (2) (2:27)
21. Eastern Music Station (6:40)
22. Eastern Music Station (2) (1:42)
23. Unidentified Chinese Station (0:42)
24. NNN (1:27)
25. NNN (2) (0:59)
26. Whiskey Tango Viente Y Uno (6:14)
27. The Crackle (2:33)
28. The Backwards Music Station (2:31)
29. Faders (1:14)
30. Workshop (2:52)
31. The Pip (0:50)
32. The Buzzer (2:40)
33. M1 (197) (0:52)[/colo
[cybertorrent.ru].t12309.torrent 
Торрент: Зарегистрирован [ 2018-02-20 07:45 ] · 2FA2591E22ADE848A09A6D4E9ABBB7FBD55B8E99

Скачать .torrent

Скачать

260 KB

Статус: проверено
Скачан: 0 раз
Размер: 1,55 GB
Профиль [ЛС]
Показать сообщения:    

Текущее время: 13-Дек 19:19

Часовой пояс: UTC ± 0



Вы не можете начинать темы
Вы не можете отвечать на сообщения
Вы не можете редактировать свои сообщения
Вы не можете удалять свои сообщения
Вы не можете голосовать в опросах
Вы не можете прикреплять файлы к сообщениям
Вы можете скачивать файлы
Torrents24.ru открытый BitTorrent Torrents24.pl открытый BitTorrent CyberTorrent.ru открытый BitTorrent BtList.ru рейтинг BitTorrent трекеров Яндекс.Метрика