Статистика раздачи
Размер:  746 MB   |    Зарегистрирован:  7 месяцев 23 дня   |    Скачан:  0 раз

Полного источника не было: Никогда

 
     
 
 

Гость ®

Пол:
Не указан

В ожидании чуда
Год выпуска: 2007
Жанр: комедия
Продолжительность: 01:36:55.151 (139424 frames)
Субтитры: нет
Режиссер: Евгений Бедарев
В ролях: Екатерина Копанова, Нина Русланова, Олеся Судзиловская, Мария Аронова, Иван Кокорин, Лев Дуров, Владимир Долинский, Антон Макарский, Владимир Крылов, Станислав Бондаренко, Татьяна Васильева, Ольга Прокофьева, Григорий Антипенко, Сергей Зверев, Михаил Полицеймако, Екатерина Присмотрова-Белова, Михаил Химичев
Описание: Пиарщица и просто милая барышня Майя (Екатерина Копанова), несмотря на пухлое лицо школьницы-отличницы, обладает вполне чувственной натурой, до которой, впрочем, никому особого дела нет. Коллеги не жалуют, начальница не пускает в отпуск, а модельный красавец Марат в упор не замечает. Всё идёт хуже некуда, и в один прекрасный день она не выдерживает и вслух просит помощи, сидя на крыше. И тут вместе с внезапным наследством в виде бабушкиной квартиры появляется сказочный метросексуал (Владимир Крылов), называющий себя «фей третьего разряда». Смазливый «фей» учит Майю, как из девушки сделаться женщиной.
Качество: BDRip
Формат: AVI
Видео кодек: XviD
Аудио кодек: МР3
Видео: 688x304 (2.26:1), 23.976 fps, XviD build 73 ~938 kbps avg, 0.19 bit/pixel
Аудио: 48 kHz, MPEG Layer 3, 2 ch, ~128.00 kbps avg

Медиаинфо

General
Complete name : E:\004 Мои раздачи\В ожидании чуда 745\v_ozhidanii_chuda_745_by_bm11.avi
Format : AVI
Format/Info : Audio Video Interleave
File size : 746 MiB
Duration : 1h 36mn
Overall bit rate : 1 076 Kbps
Director : bm11
Writing application : VirtualDubMod 1.5.10.3 | www.virtualdub-fr.org || (build 2550/release)
Video
ID : 0
Format : MPEG-4 Visual
Format profile : Advanced Simple@L5
Format settings, BVOP : 1
Format settings, QPel : No
Format settings, GMC : No warppoints
Format settings, Matrix : Custom
Codec ID : XVID
Codec ID/Hint : XviD
Duration : 1h 36mn
Bit rate : 939 Kbps
Width : 688 pixels
Height : 304 pixels
Display aspect ratio : 2.25:1
Frame rate : 23.976 (23976/1000) fps
Color space : YUV
Chroma subsampling : 4:2:0
Bit depth : 8 bits
Scan type : Progressive
Compression mode : Lossy
Bits/(Pixel*Frame) : 0.187
Stream size : 651 MiB (87%)
Writing library : XviD 73
Audio
ID : 1
Format : MPEG Audio
Format version : Version 1
Format profile : Layer 3
Codec ID : 55
Codec ID/Hint : MP3
Duration : 1h 36mn
Bit rate mode : Constant
Bit rate : 128 Kbps
Channel(s) : 2 channels
Sampling rate : 48.0 KHz
Compression mode : Lossy
Stream size : 88.7 MiB (12%)
Alignment : Aligned on interleaves
Interleave, duration : 42 ms (1.00 video frame)
Interleave, preload duratio : 504 ms
Writing library : LAME3.99r
Encoding settings : -m s -V 4 -q 2 -lowpass 17 -b 128
[cybertorrent.ru].t1290.torrent 
Торрент: Зарегистрирован [ 2019-03-21 15:52 ] · 21C38218596D79910EB808BE10A787168CFBFAEC

Скачать .torrent

Скачать

15 KB

Статус: проверено
Скачан: 0 раз
Размер: 746 MB
terms.php
Показать сообщения:    

Текущее время: 14-Ноя 07:08

Часовой пояс: UTC ± 0



Вы не можете начинать темы
Вы не можете отвечать на сообщения
Вы не можете редактировать свои сообщения
Вы не можете удалять свои сообщения
Вы не можете голосовать в опросах
Вы не можете прикреплять файлы к сообщениям
Вы можете скачивать файлы