Статистика раздачи
Размер:  4,81 GB   |    Зарегистрирован:  8 месяцев 4 дня   |    Скачан:  0 раз

Полного источника не было: Никогда

 
     
 
 

Гость ®

Пол:
Не указан

Туфли с золотыми пряжками (2 серии)
10.08.18 торрент обновлен, добавлена 2-я серия
Жанр: сказка, детский
Год выпуска: 1976
Продолжительность: 01:03:54 + 01:04:10
Режиссёр: Георгий Юнгвальд-Хилькевич
В ролях: Владимир Герасимов (Иванушка),
Ирина Малышева (Царевна Марьюшка), Лев Дуров (Царь-батюшка), Игорь Дмитриев (Сыщик), Павел Винник (Лесоруб), Александр Хочинский (Плут), Владимир Старостин (Тимоня-скоморох), Всеволод Якут (Сыщик), Олег Белов (Разбойник «Рыжий»), Георгий Штиль (Разбойник), Юрий Медведев (Кучер), Елена Папанова (Сенная девушка), Петр Бенюк (Стражник), Юрий Эллер (Стражник), Николай Кузьмин (II) (отец Иванушки), Вера Кузнецова (Нянька), Георгий Светлани (Ярыжка-кочерыжка), Л. Яппарова (Девка с конопушками), Наталья Горленко (Дунька)
Описание: Музыкальный фильм по мотивам русских народных сказок. У Царя-батюшки пропали туфли с золотыми пряжками. Кто сможет разыскать пропажу? Заморские сыщики, разбойники или Иванушка, влюбленный в Царевну Марьюшку?
Доп. информация: запись потока *.ts со спутника Экспресс АМ6, 53° в.д., ремукс в *.mkv программой VideoReDo.
Качество видео: DVB
Формат видео: MKV
Видео: MPEG2 Video, 720(1024)x576 (16:9), 25,000 кадров/сек, 5012 Кбит/сек
Аудио: MPEG Audio, 48,0 КГц, 256 Кбит/сек, 2 канала

MediaInfo

General
Unique ID : 205322638092595149927470887455004108014 (0x9A77B3A25E94784D3460D8BB05F124EE)
Complete name : R:\ТУФЛИ С ЗОЛОТЫМИ ПРЯЖКАМИ\ТУФЛИ С ЗОЛОТЫМИ ПРЯЖКАМИ 1 (Kultura 53).mkv
Format : Matroska
Format version : Version 2
File size : 2.40 GiB
Duration : 1 h 3 min
Overall bit rate mode : Variable
Overall bit rate : 5 375 kb/s
Writing application : Lavf54.63.104
Writing library : Lavf54.63.104
Video
ID : 1
Format : MPEG Video
Format version : Version 2
Format profile : Main@Main
Format settings : CustomMatrix / BVOP
Format settings, BVOP : Yes
Format settings, Matrix : Custom
Format settings, GOP : M=3, N=15
Format settings, picture st : Frame
Codec ID : V_MPEG2
Codec ID/Info : MPEG 1 or 2 Video
Duration : 1 h 3 min
Bit rate mode : Variable
Bit rate : 5 012 kb/s
Maximum bit rate : 15.0 Mb/s
Width : 720 pixels
Height : 576 pixels
Display aspect ratio : 16:9
Original display aspect rat : 16:9
Frame rate mode : Constant
Frame rate : 25.000 FPS
Standard : PAL
Color space : YUV
Chroma subsampling : 4:2:0
Bit depth : 8 bits
Scan type : Interlaced
Scan order : Top Field First
Compression mode : Lossy
Bits/(Pixel*Frame) : 0.483
Stream size : 2.24 GiB (93%)
Default : No
Forced : No
Audio
ID : 2
Format : MPEG Audio
Format version : Version 1
Format profile : Layer 2
Codec ID : A_MPEG/L2
Codec ID/Hint : MP2
Duration : 1 h 3 min
Bit rate mode : Constant
Bit rate : 256 kb/s
Channel(s) : 2 channels
Sampling rate : 48.0 kHz
Compression mode : Lossy
Delay relative to video : 6 ms
Stream size : 117 MiB (5%)
Language : English
Default : Yes
Forced : No
General
Unique ID : 338290226317006288948371043139256139715 (0xFE8053E28EC3A019B0510BE4D0053FC3)
Complete name : R:\ТУФЛИ С ЗОЛОТЫМИ ПРЯЖКАМИ\ТУФЛИ С ЗОЛОТЫМИ ПРЯЖКАМИ 2 (Kultura 53).mkv
Format : Matroska
Format version : Version 2
File size : 2.41 GiB
Duration : 1 h 4 min
Overall bit rate mode : Variable
Overall bit rate : 5 376 kb/s
Writing application : Lavf54.63.104
Writing library : Lavf54.63.104
Video
ID : 1
Format : MPEG Video
Format version : Version 2
Format profile : Main@Main
Format settings : CustomMatrix / BVOP
Format settings, BVOP : Yes
Format settings, Matrix : Custom
Format settings, GOP : M=3, N=15
Format settings, picture st : Frame
Codec ID : V_MPEG2
Codec ID/Info : MPEG 1 or 2 Video
Duration : 1 h 4 min
Bit rate mode : Variable
Bit rate : 5 013 kb/s
Maximum bit rate : 15.0 Mb/s
Width : 720 pixels
Height : 576 pixels
Display aspect ratio : 16:9
Original display aspect rat : 16:9
Frame rate mode : Constant
Frame rate : 25.000 FPS
Standard : PAL
Color space : YUV
Chroma subsampling : 4:2:0
Bit depth : 8 bits
Scan type : Interlaced
Scan order : Top Field First
Compression mode : Lossy
Bits/(Pixel*Frame) : 0.483
Stream size : 2.25 GiB (93%)
Default : No
Forced : No
Audio
ID : 2
Format : MPEG Audio
Format version : Version 1
Format profile : Layer 2
Codec ID : A_MPEG/L2
Codec ID/Hint : MP2
Duration : 1 h 4 min
Bit rate mode : Constant
Bit rate : 256 kb/s
Channel(s) : 2 channels
Sampling rate : 48.0 kHz
Compression mode : Lossy
Delay relative to video : 22 ms
Stream size : 118 MiB (5%)
Language : English
Default : Yes
Forced : No
[cybertorrent.ru].t130.torrent 
Торрент: Зарегистрирован [ 2019-03-18 10:04 ] · 0FCDDEC3C551D9110D0E9882C9E83EC45C8F00EC

Скачать .torrent

Скачать

25 KB

Статус: проверено
Скачан: 0 раз
Размер: 4,81 GB
terms.php
Показать сообщения:    

Текущее время: 23-Ноя 01:22

Часовой пояс: UTC ± 0



Вы не можете начинать темы
Вы не можете отвечать на сообщения
Вы не можете редактировать свои сообщения
Вы не можете удалять свои сообщения
Вы не можете голосовать в опросах
Вы не можете прикреплять файлы к сообщениям
Вы можете скачивать файлы