Статистика раздачи
Размер:  345 MB   |    Зарегистрирован:  7 месяцев 4 дня   |    Скачан:  0 раз

Полного источника не было: Никогда

Личеров:  1  [  0 KB/s  ]  
 
   
 
 

safari ®

Пол:
Мужской
Стаж:
7 месяцев 9 дней
Сообщений:
98

Natur zum Hören - Klassische Meisterwerke und die schönsten Stimmen der Natur
Жанр: Classical
Страна-производитель диска: Germany
Год издания диска: 1995
Издатель (лейбл): PolyGram GmbH
Номер по каталогу: 445658-2
Аудиокодек: FLAC
Тип рипа: tracks+.cue
Битрейт аудио: lossless
Продолжительность: 1:13:40.
Источник: собственный рип
Наличие сканов в содержимом раздачи: да
Треклист:
01. Morgenstimmung aus Peer Gynt_E. Grieg [0:04:43.00]
02. Die Moldau - J. Smetana [0:05:40.00]
03. Symphonie Nr. 6 Pastorale 1. Satz - L. v. Beethoven [0:05:26.00]
04. Andanate aus Kalvierkonzert Nr. 21 - W. A. Mozart [0:07:23.00]
05. Der Distelfink aus Flötenkonzert Nr. 3 - A. Vivaldi [0:04:04.00]
06. Air aus Orchestersuite Nr. 3 - J. S. Bach [0:06:02.00]
07. Der Frühling aus Die vier Jahreszeiten - A. Vivaldi [0:03:31.00]
08. Air aus Wassermusik - G. F. Händel [0:05:06.00]
09. Intermezzo aus Cavalleria Rusticana - P. Mascagni [0:03:40.00]
10. Symphonie Nr. 6 Pastorale 2. Satz - L. v. Beethoven [0:05:09.00]
11. Romanze aus Eine kleine Nachtmusik - W. A. Mozart [0:05:58.00]
12. Fantasie über Greensleeves - Vaughan Williams [0:04:40.00]
13. Nocturne Opus 19 Nr. 4 - P. I. Tschaikowsky [0:04:53.00]
14. I Pini Del Gianicolo aus Pini di Roma - O. Respighi [0:07:25.00]
Исполнители:
Unknown

Лог создания рипа

Exact Audio Copy V1.0 beta 3 from 29. August 2011
Отчёт EAC об извлечении, выполненном 1. августа 2015, 22:20
VA / Natur zum Hören - Klassische Meisterwerke und die schönsten Stimmen der Natur
Дисковод: ASUS DRW-1814BLT Adapter: 4 ID: 0
Режим чтения : Достоверность
Использование точного потока : Да
Отключение кэша аудио : Да
Использование указателей C2 : Нет
Коррекция смещения при чтении : 6
Способность читать области Lead-in и Lead-out : Нет
Заполнение пропущенных сэмплов тишиной : Да
Удаление блоков с тишиной в начале и конце : Нет
При вычислениях CRC использовались нулевые сэмплы : Да
Интерфейс : Встроенный Win32-интерфейс для Win NT/2000
Обработка зазоров : Добавлено к предыдущему треку
Выходной формат : Пользовательский кодировщик
Выбранный битрейт : 128 kBit/s
Качество : Высокий
Добавление ID3-тега : Нет
Утилита сжатия : C:\Program Files\Exact Audio Copy\Flac\flac.exe
Дополнительные параметры : -V -8 -T "Genre=%genre%" -T "Artist=%artist%" -T "Title=%title%" -T "Album=%albumtitle%" -T "Date=%year%" -T "Tracknumber=%tracknr%" -T "Comment=EAC1.0b2 FLAC -8" %source%
TOC извлечённого CD
Трек | Старт | Длительность | Начальный сектор | Конечный сектор
---------------------------------------------------------------------
1 | 0:00.32 | 4:43.00 | 32 | 21256
2 | 4:43.32 | 5:40.00 | 21257 | 46756
3 | 10:23.32 | 5:26.00 | 46757 | 71206
4 | 15:49.32 | 7:23.00 | 71207 | 104431
5 | 23:12.32 | 4:04.00 | 104432 | 122731
6 | 27:16.32 | 6:02.00 | 122732 | 149881
7 | 33:18.32 | 3:31.00 | 149882 | 165706
8 | 36:49.32 | 5:06.00 | 165707 | 188656
9 | 41:55.32 | 3:40.00 | 188657 | 205156
10 | 45:35.32 | 5:09.00 | 205157 | 228331
11 | 50:44.32 | 5:58.00 | 228332 | 255181
12 | 56:42.32 | 4:40.00 | 255182 | 276181
13 | 61:22.32 | 4:53.00 | 276182 | 298156
14 | 66:15.32 | 7:25.00 | 298157 | 331531
Трек 1
Имя файла R:\Раздача 50\VA - Natur Zum Horen - 1995\01 Morgenstimmung aus Peer Gynt_E. Grieg.wav
Длина предзазора 0:00:02.32
Пиковый уровень 76.2 %
Скорость извлечения 3.0 X
Качество трека 100.0 %
CRC теста C1066C0D
CRC копии C1066C0D
Трек не обнаружен в базе AccurateRip
Копирование... OK
Трек 2
Имя файла R:\Раздача 50\VA - Natur Zum Horen - 1995\02 Die Moldau - J. Smetana.wav
Пиковый уровень 92.2 %
Скорость извлечения 3.4 X
Качество трека 100.0 %
CRC теста 817B0BEE
CRC копии 817B0BEE
Трек не обнаружен в базе AccurateRip
Копирование... OK
Трек 3
Имя файла R:\Раздача 50\VA - Natur Zum Horen - 1995\03 Symphonie Nr. 6 Pastorale 1. Satz - L. v. Beethoven.wav
Пиковый уровень 88.2 %
Скорость извлечения 2.3 X
Качество трека 99.9 %
CRC теста 5748C606
CRC копии 5748C606
Трек не обнаружен в базе AccurateRip
Копирование... OK
Трек 4
Имя файла R:\Раздача 50\VA - Natur Zum Horen - 1995\04 Andanate aus Kalvierkonzert Nr. 21 - W. A. Mozart.wav
Пиковый уровень 69.0 %
Скорость извлечения 4.2 X
Качество трека 100.0 %
CRC теста DC993281
CRC копии DC993281
Трек не обнаружен в базе AccurateRip
Копирование... OK
Трек 5
Имя файла R:\Раздача 50\VA - Natur Zum Horen - 1995\05 Der Distelfink aus Flötenkonzert Nr. 3 - A. Vivaldi.wav
Пиковый уровень 61.2 %
Скорость извлечения 2.5 X
Качество трека 99.9 %
CRC теста AA9CB8EC
CRC копии AA9CB8EC
Трек не обнаружен в базе AccurateRip
Копирование... OK
Трек 6
Имя файла R:\Раздача 50\VA - Natur Zum Horen - 1995\06 Air aus Orchestersuite Nr. 3 - J. S. Bach.wav
Пиковый уровень 78.5 %
Скорость извлечения 4.7 X
Качество трека 100.0 %
CRC теста C2846ED8
CRC копии C2846ED8
Трек не обнаружен в базе AccurateRip
Копирование... OK
Трек 7
Имя файла R:\Раздача 50\VA - Natur Zum Horen - 1995\07 Der Frühling aus Die vier Jahreszeiten - A. Vivaldi.wav
Пиковый уровень 100.0 %
Скорость извлечения 4.6 X
Качество трека 100.0 %
CRC теста 442CB166
CRC копии 442CB166
Трек не обнаружен в базе AccurateRip
Копирование... OK
Трек 8
Имя файла R:\Раздача 50\VA - Natur Zum Horen - 1995\08 Air aus Wassermusik - G. F. Händel.wav
Пиковый уровень 43.7 %
Скорость извлечения 5.0 X
Качество трека 100.0 %
CRC теста 9CB4C41D
CRC копии 9CB4C41D
Трек не обнаружен в базе AccurateRip
Копирование... OK
Трек 9
Имя файла R:\Раздача 50\VA - Natur Zum Horen - 1995\09 Intermezzo aus Cavalleria Rusticana - P. Mascagni.wav
Пиковый уровень 93.8 %
Скорость извлечения 4.9 X
Качество трека 100.0 %
CRC теста 66119C8E
CRC копии 66119C8E
Трек не обнаружен в базе AccurateRip
Копирование... OK
Трек 10
Имя файла R:\Раздача 50\VA - Natur Zum Horen - 1995\10 Symphonie Nr. 6 Pastorale 2. Satz - L. v. Beethoven.wav
Пиковый уровень 75.8 %
Скорость извлечения 5.3 X
Качество трека 100.0 %
CRC теста 13037E72
CRC копии 13037E72
Трек не обнаружен в базе AccurateRip
Копирование... OK
Трек 11
Имя файла R:\Раздача 50\VA - Natur Zum Horen - 1995\11 Romanze aus Eine kleine Nachtmusik - W. A. Mozart.wav
Пиковый уровень 100.0 %
Скорость извлечения 5.6 X
Качество трека 100.0 %
CRC теста C9770B23
CRC копии C9770B23
Трек не обнаружен в базе AccurateRip
Копирование... OK
Трек 12
Имя файла R:\Раздача 50\VA - Natur Zum Horen - 1995\12 Fantasie über Greensleeves - Vaughan Williams.wav
Пиковый уровень 47.7 %
Скорость извлечения 5.6 X
Качество трека 100.0 %
CRC теста C87F548A
CRC копии C87F548A
Трек не обнаружен в базе AccurateRip
Копирование... OK
Трек 13
Имя файла R:\Раздача 50\VA - Natur Zum Horen - 1995\13 Nocturne Opus 19 Nr. 4 - P. I. Tschaikowsky.wav
Пиковый уровень 82.1 %
Скорость извлечения 5.8 X
Качество трека 100.0 %
CRC теста 7E9CA0F3
CRC копии 7E9CA0F3
Трек не обнаружен в базе AccurateRip
Копирование... OK
Трек 14
Имя файла R:\Раздача 50\VA - Natur Zum Horen - 1995\14 I Pini Del Gianicolo aus Pini di Roma - O. Respighi.wav
Пиковый уровень 39.8 %
Скорость извлечения 6.3 X
Качество трека 100.0 %
CRC теста 2E5761DE
CRC копии 2E5761DE
Трек не обнаружен в базе AccurateRip
Копирование... OK
Ни одного трека нет в базе AccurateRip
Ошибок не произошло
Конец отчёта
==== Контрольная сумма отчёта 31FE09F27B5A7C4F8A7E796AF630FF4F4DC334F46229D3159611F791EBE8F46A ====

Содержание индексной карты (.CUE)

REM GENRE Classical
REM DATE 1995
REM DISCID C111440E
REM COMMENT "ExactAudioCopy v1.0b3"
CATALOG 0028944565829
PERFORMER "VA"
TITLE "Natur zum Horen - Klassische Meisterwerke und die schonsten Stimmen der Natur"
FILE "01 Morgenstimmung aus Peer Gynt_E. Grieg.wav" WAVE
TRACK 01 AUDIO
TITLE "Morgenstimmung aus Peer Gynt_E. Grieg"
PERFORMER "VA"
PREGAP 00:00:32
INDEX 01 00:00:00
FILE "02 Die Moldau - J. Smetana.wav" WAVE
TRACK 02 AUDIO
TITLE "Die Moldau - J. Smetana"
PERFORMER "VA"
INDEX 01 00:00:00
FILE "03 Symphonie Nr. 6 Pastorale 1. Satz - L. v. Beethoven.wav" WAVE
TRACK 03 AUDIO
TITLE "Symphonie Nr. 6 Pastorale 1. Satz - L. v. Beethoven"
PERFORMER "VA"
INDEX 01 00:00:00
FILE "04 Andanate aus Kalvierkonzert Nr. 21 - W. A. Mozart.wav" WAVE
TRACK 04 AUDIO
TITLE "Andanate aus Kalvierkonzert Nr. 21 - W. A. Mozart"
PERFORMER "VA"
INDEX 01 00:00:00
FILE "05 Der Distelfink aus Flotenkonzert Nr. 3 - A. Vivaldi.wav" WAVE
TRACK 05 AUDIO
TITLE "Der Distelfink aus Flotenkonzert Nr. 3 - A. Vivaldi"
PERFORMER "VA"
INDEX 01 00:00:00
FILE "06 Air aus Orchestersuite Nr. 3 - J. S. Bach.wav" WAVE
TRACK 06 AUDIO
TITLE "Air aus Orchestersuite Nr. 3 - J. S. Bach"
PERFORMER "VA"
INDEX 01 00:00:00
FILE "07 Der Fruhling aus Die vier Jahreszeiten - A. Vivaldi.wav" WAVE
TRACK 07 AUDIO
TITLE "Der Fruhling aus Die vier Jahreszeiten - A. Vivaldi"
PERFORMER "VA"
INDEX 01 00:00:00
FILE "08 Air aus Wassermusik - G. F. Handel.wav" WAVE
TRACK 08 AUDIO
TITLE "Air aus Wassermusik - G. F. Handel"
PERFORMER "VA"
INDEX 01 00:00:00
FILE "09 Intermezzo aus Cavalleria Rusticana - P. Mascagni.wav" WAVE
TRACK 09 AUDIO
TITLE "Intermezzo aus Cavalleria Rusticana - P. Mascagni"
PERFORMER "VA"
INDEX 01 00:00:00
FILE "10 Symphonie Nr. 6 Pastorale 2. Satz - L. v. Beethoven.wav" WAVE
TRACK 10 AUDIO
TITLE "Symphonie Nr. 6 Pastorale 2. Satz - L. v. Beethoven"
PERFORMER "VA"
INDEX 01 00:00:00
FILE "11 Romanze aus Eine kleine Nachtmusik - W. A. Mozart.wav" WAVE
TRACK 11 AUDIO
TITLE "Romanze aus Eine kleine Nachtmusik - W. A. Mozart"
PERFORMER "VA"
INDEX 01 00:00:00
FILE "12 Fantasie uber Greensleeves - Vaughan Williams.wav" WAVE
TRACK 12 AUDIO
TITLE "Fantasie uber Greensleeves - Vaughan Williams"
PERFORMER "VA"
INDEX 01 00:00:00
FILE "13 Nocturne Opus 19 Nr. 4 - P. I. Tschaikowsky.wav" WAVE
TRACK 13 AUDIO
TITLE "Nocturne Opus 19 Nr. 4 - P. I. Tschaikowsky"
PERFORMER "VA"
INDEX 01 00:00:00
FILE "14 I Pini Del Gianicolo aus Pini di Roma - O. Respighi.wav" WAVE
TRACK 14 AUDIO
TITLE "I Pini Del Gianicolo aus Pini di Roma - O. Respighi"
PERFORMER "VA"
INDEX 01 00:00:00
[cybertorrent.ru].t14247.torrent 
Торрент: Зарегистрирован [ 2018-02-20 18:42 ] · E94E16AD3D920A11F1B467B126FDBC0DB9C41901

Скачать .torrent

Скачать

16 KB

Статус: проверено
Скачан: 0 раз
Размер: 345 MB
Профиль [ЛС]
Показать сообщения:    

Текущее время: 25-Сен 12:36

Часовой пояс: UTC ± 0



Вы не можете начинать темы
Вы не можете отвечать на сообщения
Вы не можете редактировать свои сообщения
Вы не можете удалять свои сообщения
Вы не можете голосовать в опросах
Вы не можете прикреплять файлы к сообщениям
Вы можете скачивать файлы
Torrents24.ru открытый BitTorrent Torrents24.pl открытый BitTorrent CyberTorrent.ru открытый BitTorrent BtList.ru рейтинг BitTorrent трекеров Яндекс.Метрика