Статистика раздачи
Размер:  701 MB   |    Зарегистрирован:  2 месяца 30 дней   |    Скачан:  0 раз
DL-List: Нет

Полного источника не было: Никогда

 
     
 
 

MAGNAT ®

Пол:
Мужской
Стаж:
1 год 2 месяца
Сообщений:
7949

Победа / Victory
Страна: США
Жанр: драма, мелодрама
Год выпуска: 1919
Продолжительность: 1:02:26
Перевод: Субтитры (VitoVitelly и leburs)
Субтитры: русские
Интертитры: английские
Аудиодорожка: музыкальное сопровождение
Режиссер: Морис Турнер / Maurice Tourneur
В ролях: Джек Холт, Сина Оуэн, Уоллес Бири, Бен Дили, Лон Чейни, Булл Монтана, Джордж Николс, Рут Реник, Лаура Уинстон
Описание: По одноименному роману Джозефа Конрада, первая и единственная прижизненная экранизация.
Аксель Хайст живёт затворником на одном из островов, ныне пренадлежащих Индонезии. Прибыв на Яву с целью уладить дела, связанные с закрытием его фирмы, он поселился в отеле, где знакомится с девушкой из женского оркестра, развлекавшего здешнюю публику. Её настойчиво преследуют хозяин гостиницы Шомберг и дирижёр Дзанджакомо и всячески третирует жена последнего. Из жалости Хайст соглашается помочь ей бежать... Раздосадованный Шомберг подсылает к нему на остров трёх тёмных личностей, уверив их в баснословном богатстве Хайста... Эта архетипическая "нечестивая троица" состоит из мудрого главаря мистера Джонса, диковатого силача Педро и ловкого, вкрадчивого бандита Рикардо.
Качество видео: DVDRip
Формат видео: AVI
Видео: 576x432 (1.33:1), 19.480 fps, XviD Final 1.0.2 (build 36) ~1340 kbps avg, 0.28 bit/pixel
Аудио: 48 kHz, AC3 Dolby Digital, 2/0 (L,R) ch, ~224 kbps
Формат субтитров: softsub (SRT)

MediaInfo

Общее
Полное имя : ...\Victory.1919.DVDRip.XviD-SAPHiRE.avi
Формат : AVI
Формат/Информация : Audio Video Interleave
Размер файла : 701 Мбайт
Продолжительность : 1 ч. 2 м.
Общий поток : 1570 Кбит/сек
Программа кодирования : Nandub v1.0rc2
Библиотека кодирования : Nandub build 1852/release
Видео
Идентификатор : 0
Формат : MPEG-4 Visual
Профиль формата : Simple@L3
Настройки формата : BVOP1
Параметр BVOP формата : 1
Параметр QPel формата : Нет
Параметр GMC формата : Без точки перехода
Параметр матрицы формата : Default (MPEG)
Идентификатор кодека : XVID
Идентификатор кодека/Подсказка : XviD
Продолжительность : 1 ч. 2 м.
Битрейт : 1340 Кбит/сек
Ширина : 576 пикселей
Высота : 432 пикселя
Соотношение сторон : 4:3
Частота кадров : 19,480 кадров/сек
Частота кадров в оригинале : 19,481 кадров/сек
Цветовое пространство : YUV
Субдискретизация насыщенности : 4:2:0
Битовая глубина : 8 бит
Тип развёртки : Прогрессивная
Метод сжатия : С потерями
Бит/(Пиксели*Кадры) : 0.277
Размер потока : 599 Мбайт (85%)
Библиотека кодирования : XviD 1.0.2 (UTC 2004-08-29)
Аудио
Идентификатор : 1
Формат : AC-3
Формат/Информация : Audio Coding 3
Коммерческое название : Dolby Digital
Идентификатор кодека : 2000
Продолжительность : 1 ч. 2 м.
Вид битрейта : Постоянный
Битрейт : 224 Кбит/сек
Каналы : 2 канала
ChannelLayout : L R
Частота : 48,0 КГц
Частота кадров : 31,250 кадров/сек (1536 SPF)
Метод сжатия : С потерями
Задержка видео : 66 мс.
Размер потока : 100 Мбайт (14%)
Выравнивание : Разделение по промежуткам
Продолжительность промежутка : 96 мс. (1,87 видеокадра)
Время предзагрузки промежутка : 96 мс.
ServiceKind/String : Complete Main

Скриншоты

Фрагмент субтитров

5
00:00:42,180 --> 00:00:46,250
Остров Самбуран, где происходит
наша история, -
6
00:00:46,251 --> 00:00:51,251
одинокий пустынный аванпост
Голландской Ост-Индии.
7
00:00:58,160 --> 00:01:03,689
Именно здесь по только ему
известным причинам
8
00:01:03,690 --> 00:01:10,900
в течение двух лет в абсолютном
уединении жил Аксель Хайст.
9
00:01:10,901 --> 00:01:16,998
Его посещали лишь тени - тени отвергнутой
им жизни, пришедшие из книг его отца,
10
00:01:16,999 --> 00:01:21,200
писателя с живым воображением и
талантом.
11
00:01:46,000 --> 00:01:50,500
<i>Полная изоляция означает
полное умиротворение.</i>
12
00:01:50,501 --> 00:01:55,000
<i>Это награда для человека, который
ведёт жизнь наблюдателя,</i>
13
00:01:55,001 --> 00:02:00,200
<i>стойко отказывающегося предпринимать
действия, нарушающие его спокойствие.</i>
14
00:02:00,201 --> 00:02:05,900
<i>Такой человек должен быть готов к жизни
в неприступном отшельничестве и одиночестве...</i>
15
00:02:08,900 --> 00:02:13,240
Лишь одной живой душе Хайст
позволил разделить
16
00:02:13,241 --> 00:02:17,241
своё добровольное изгнание:
слуге Вангу.
17
00:02:49,300 --> 00:02:55,901
До сих пор загадочное затворничество
Хайста порождало множество комментариев,
18
00:02:55,902 --> 00:02:59,200
от враждебных до одобрительных,
у обитателей соседних островов.
19
00:03:04,250 --> 00:03:07,250
Взять, к примеру, Шомберга,
хозяина гостиницы в Сурабае,
20
00:03:07,251 --> 00:03:11,851
у которого вызывало подозрение
всё, чего он не мог понять:
21
00:03:14,300 --> 00:03:18,500
"Человек не станет прятаться
на таком безлюдном острове,
22
00:03:18,501 --> 00:03:22,501
если у него нет причин скрываться..."
23
00:03:26,000 --> 00:03:28,502
"Глупости, Шомберг!
24
00:03:28,503 --> 00:03:35,300
Всякий знает, что Хайст, невзирая на его
странные идеи, совершенно безобиден..."
[cybertorrent.ru].t12435.torrent 
Торрент: Зарегистрирован [ 2020-03-05 19:48 ] · 87606567129536FBBB6A4FD2D8730E7DDA55B357

Скачать .torrent

Скачать

14 KB

Статус: проверено
Скачан: 0 раз
Размер: 701 MB  ·  Тип торрента
terms.php
Профиль [ЛС]
Показать сообщения:    

Текущее время: 05-Июн 12:47

Часовой пояс: UTC ± 0



Вы не можете начинать темы
Вы не можете отвечать на сообщения
Вы не можете редактировать свои сообщения
Вы не можете удалять свои сообщения
Вы не можете голосовать в опросах
Вы не можете прикреплять файлы к сообщениям
Вы можете скачивать файлы