Статистика раздачи
Нет
 
     
 
 

MAGNAT ®

Пол:
Мужской
Стаж:
2 года 8 месяцев
Сообщений:
13012

Откуда: Москва

Львиный рык / Roaring with Pride

Дата/Год выпуска: 2013
Страна: США
Жанр: документальный
Продолжительность: 6 серий по 00:43:45
Перевод: Профессиональный (двухголосый закадровый) - АРК·ТВ (Ольга зубкова и Александр Гаврилин)
Русские субтитры: нет

Режиссер: Дон Персиваль / Don Percival
Описание: Предлагаем присоединиться к сотрудникам фонда ALERT, работающим в Африке, и провести целый год вместе с 12 львами, выпущенными в заповедник и изолированными от человека.

формат: AVI
Видео: 720x400 (1.80:1), 25 fps, XviD build 73 ~1979 kbps avg, 0.28 bit/pixel
Аудио: 48 kHz, AC3 Dolby Digital, 3/2 (L,C,R,l,r) + LFE ch, ~384 kbps
------

Список выпусков/серий

01. Львы для Африки / Lions for Africa
02. Львиная доля / ALERT Pride - The Lion's Share
03. Лежащий лев / Just Lion Here
04. Успешные хищники / Predator Progress
05. Ударный отряд / Strike Force!
06. Созданы для величия / Destined for Greatness

MediaInfo

Общее
Полное имя : H:\Roaring.with.Pride.2013.hdtvrip_[teko]\e01_Lions.for.Africa.avi
Формат : AVI
Формат/Информация : Audio Video Interleave
Размер файла : 743 Мбайт
Продолжительность : 43 м.
Общий поток : 2373 Кбит/сек
Программа кодирования : VirtualDubMod 1.5.10.3 | www.virtualdub-fr.org || (build 2550/release)
Библиотека кодирования : VirtualDubMod build 2550/release
Видео
Идентификатор : 0
Формат : MPEG-4 Visual
Профиль формата : Advanced Simple@L5
Параметр BVOP формата : 2
Параметр QPel формата : Нет
Параметр GMC формата : Без точки перехода
Параметр матрицы формата : Выборочная
Идентификатор кодека : XVID
Идентификатор кодека/Подсказка : XviD
Продолжительность : 43 м.
Битрейт : 1979 Кбит/сек
Ширина : 720 пикселей
Высота : 400 пикселей
Соотношение сторон : 16:9
Частота кадров : 25,000 кадров/сек
Цветовое пространство : YUV
Субдискретизация насыщенности : 4:2:0
Битовая глубина : 8 бит
Тип развёртки : Прогрессивная
Метод сжатия : С потерями
Бит/(Пиксели*Кадры) : 0.275
Размер потока : 619 Мбайт (83%)
Библиотека кодирования : XviD 73
Аудио
Идентификатор : 1
Формат : AC-3
Формат/Информация : Audio Coding 3
Расширение режима : CM (complete main)
Параметр Endianness формата : Big
Идентификатор кодека : 2000
Продолжительность : 43 м.
Вид битрейта : Постоянный
Битрейт : 384 Кбит/сек
Каналы : 6 каналов
Расположение каналов : Front: L C R, Side: L R, LFE
Частота : 48,0 КГц
Битовая глубина : 16 бит
Метод сжатия : С потерями
Размер потока : 120 Мбайт (16%)
Выравнивание : Разделение по промежуткам
Продолжительность промежутка : 40 мс. (1,00 видеокадр)
Время предзагрузки промежутка : 500 мс.
Профиль [ЛС]
Показать сообщения:    

Текущее время: 01-Дек 03:45

Часовой пояс: UTC ± 0



Вы не можете начинать темы
Вы не можете отвечать на сообщения
Вы не можете редактировать свои сообщения
Вы не можете удалять свои сообщения
Вы не можете голосовать в опросах
Вы не можете прикреплять файлы к сообщениям
Вы не можете скачивать файлы