Статистика раздачи
Нет
 
     
 
 

MAGNAT ®

Пол:
Мужской
Стаж:
2 года 8 месяцев
Сообщений:
13012

Откуда: Москва

Живая природа островов Юго-Восточной Азии / Islands in Time. A wildlife odyssey
Дата/Год выпуска: 2017
Страна: Австрия, Terra Mater Factual Studios
Жанр: Документальный, природа, флора, фауна
Продолжительность: 3 х ~00:50:00
Перевод: Студийный (одноголосый закадровый)
Доп. инфо о переводе: СВ-Дубль
Русские субтитры: есть
Формат субтитров: softsub (SRT)
Доп. информация о субтитрах: СВ-Дубль
Режиссер: Matt Hamilton / Мэтт Гамильтон
Телеканал: Культура
Описание: Острова между Австралией и Азией отличает самое большое многообразие видов на планете. Благодаря действующим вулканом в процессе эволюции здесь появились поистине необыкновенные живые существа. На побережье и на линии прибоя своим таинственным миром управляет Луна. А в лесах ежедневно царит Солнце, поддерживая разнообразие флоры и фауны. Самые мощные силы природы: Земля, Солнце и Луна делают эти острова, непохожими на другие. Они формировались миллионы лет. Древние острова Юго-Восточной Азии – дом для самого большого сообщества живых существ на планете.
качество: DVB
формат: MKV
Видео: 720x576 (16:9) AVC (H.264) Main@L3.0, ~ 2710 kbps, 25fps
Аудио: Русский 48 kHz, MPEG Layer 2, 2 ch, ~192.00 kbps avg

Список выпусков/серий

01. Рожденные из огня / Born of fire
Острова между Австралией и Азией отличает самое большое разнообразие биологических видов на Земле. Здесь обитают очень красивые животные. И очень необычные. В этом причудливом мире птицы выводят птенцов на склонах активных вулканов. Свиньи боксируют. А кенгуру лазят по деревьям. Разнообразные формы жизни сформировала здесь одна из самых мощных природных стихий – вулканическая.
02. Околдованные Луной / Bewitched by the Moon
Острова, расположенные между Австралией и Азией, были созданы огнем. Удивительное многообразие растений и животных появилось как следствие стихийных катаклизмов. Но есть еще параллельный мир, в котором царит Луна. Здесь рыбы живут внутри деревьев и убегают от воды. Насекомые освещают самые темные ночи, а крабы танцуют. Сильнее всего влияние Луны сказывается на побережьях и в мелководных морях. Здесь Луна властвует над своими загадочными подданными.
03. Во власти Солнца / Ruled by the Sun
Мощные природные стихии создали острова между Австралией и Азией, острова с самыми богатыми в мире флорой и фауной. И одна сила царит здесь над всеми, задает ежедневный ритм, к которому должно адаптироваться все живое. Под ее влиянием одни деревья влажного леса достигают гигантских размеров, а другие превращаются в незаметных убийц. Одни странные существа прячутся от нее в темноте. А другие впитывают ее живительную энергию. Эта сила – мощная, безграничная сила тропического солнца.

MediaInfo

Complete name : F:\Наладки\SD-фильмы\Живая природа островов Юго-Восточной Азии\01. Рожденные из огня.mkv
Format : Matroska
Format version : Version 4
File size : 1.03 GiB
Duration : 49 min 59 s
Overall bit rate : 2 961 kb/s
Encoded date : UTC 2019-09-21 18:07:43
Writing application : mkvmerge v6.6.0 ('The Edge Of The In Between') built on Dec 1 2013 17:55:00
Writing library : libebml v1.3.0 + libmatroska v1.4.1
Video
ID : 1
Format : AVC
Format/Info : Advanced Video Codec
Format profile : Main@L3
Format settings : CABAC / 4 Ref Frames
Format settings, CABAC : Yes
Format settings, Reference : 4 frames
Format settings, GOP : M=4, N=28
Codec ID : V_MPEG4/ISO/AVC
Bit rate : 2 710 kb/s
Width : 720 pixels
Height : 576 pixels
Display aspect ratio : 16:9
Frame rate mode : Variable
Original frame rate : 25.000 FPS
Standard : Component
Color space : YUV
Chroma subsampling : 4:2:0
Bit depth : 8 bits
Scan type : Interlaced
Scan type, store method : Separated fields
Scan order : Top Field First
Default : Yes
Forced : No
Color range : Limited
Color primaries : BT.601 PAL
Transfer characteristics : BT.470 System B/G
Matrix coefficients : BT.470 System B/G
Audio
ID : 2
Format : MPEG Audio
Format version : Version 1
Format profile : Layer 2
Codec ID : A_MPEG/L2
Codec ID/Hint : MP2
Duration : 49 min 59 s
Bit rate mode : Constant
Bit rate : 192 kb/s
Channel(s) : 2 channels
Sampling rate : 48.0 kHz
Compression mode : Lossy
Stream size : 68.7 MiB (6%)
Title : СВ-Дубль
Language : Russian
Default : Yes
Forced : Yes
Text
ID : 3
Format : UTF-8
Codec ID : S_TEXT/UTF8
Codec ID/Info : UTF-8 Plain Text
Title : СВ-Дубль
Language : Russian
Default : No
Forced : No
Complete name : F:\Наладки\SD-фильмы\Живая природа островов Юго-Восточной Азии\02. Околдованные Луной.mkv
Format : Matroska
Format version : Version 4
File size : 1.06 GiB
Duration : 50 min 2 s
Overall bit rate : 3 039 kb/s
Encoded date : UTC 2019-09-21 18:09:39
Writing application : mkvmerge v6.6.0 ('The Edge Of The In Between') built on Dec 1 2013 17:55:00
Writing library : libebml v1.3.0 + libmatroska v1.4.1
Video
ID : 1
Format : AVC
Format/Info : Advanced Video Codec
Format profile : Main@L3
Format settings : CABAC / 4 Ref Frames
Format settings, CABAC : Yes
Format settings, Reference : 4 frames
Codec ID : V_MPEG4/ISO/AVC
Bit rate : 2 787 kb/s
Width : 720 pixels
Height : 576 pixels
Display aspect ratio : 16:9
Frame rate mode : Variable
Original frame rate : 25.000 FPS
Standard : Component
Color space : YUV
Chroma subsampling : 4:2:0
Bit depth : 8 bits
Scan type : Interlaced
Scan type, store method : Separated fields
Scan order : Top Field First
Default : Yes
Forced : No
Color range : Limited
Color primaries : BT.601 PAL
Transfer characteristics : BT.470 System B/G
Matrix coefficients : BT.470 System B/G
Audio
ID : 2
Format : MPEG Audio
Format version : Version 1
Format profile : Layer 2
Codec ID : A_MPEG/L2
Codec ID/Hint : MP2
Duration : 50 min 2 s
Bit rate mode : Constant
Bit rate : 192 kb/s
Channel(s) : 2 channels
Sampling rate : 48.0 kHz
Compression mode : Lossy
Stream size : 68.7 MiB (6%)
Title : СВ-Дубль
Language : Russian
Default : Yes
Forced : Yes
Text
ID : 3
Format : UTF-8
Codec ID : S_TEXT/UTF8
Codec ID/Info : UTF-8 Plain Text
Title : СВ-Дубль
Language : Russian
Default : No
Forced : No
Complete name : F:\Наладки\SD-фильмы\Живая природа островов Юго-Восточной Азии\03. Во власти Солнца.mkv
Format : Matroska
Format version : Version 4
File size : 1.08 GiB
Duration : 49 min 59 s
Overall bit rate : 3 080 kb/s
Encoded date : UTC 2019-09-21 18:10:37
Writing application : mkvmerge v6.6.0 ('The Edge Of The In Between') built on Dec 1 2013 17:55:00
Writing library : libebml v1.3.0 + libmatroska v1.4.1
Video
ID : 1
Format : AVC
Format/Info : Advanced Video Codec
Format profile : Main@L3
Format settings : CABAC / 4 Ref Frames
Format settings, CABAC : Yes
Format settings, Reference : 4 frames
Format settings, GOP : M=4, N=28
Codec ID : V_MPEG4/ISO/AVC
Bit rate : 2 827 kb/s
Width : 720 pixels
Height : 576 pixels
Display aspect ratio : 16:9
Frame rate mode : Variable
Original frame rate : 25.000 FPS
Standard : Component
Color space : YUV
Chroma subsampling : 4:2:0
Bit depth : 8 bits
Scan type : Interlaced
Scan type, store method : Separated fields
Scan order : Top Field First
Default : Yes
Forced : No
Color range : Limited
Color primaries : BT.601 PAL
Transfer characteristics : BT.470 System B/G
Matrix coefficients : BT.470 System B/G
Audio
ID : 2
Format : MPEG Audio
Format version : Version 1
Format profile : Layer 2
Codec ID : A_MPEG/L2
Codec ID/Hint : MP2
Duration : 49 min 59 s
Bit rate mode : Constant
Bit rate : 192 kb/s
Channel(s) : 2 channels
Sampling rate : 48.0 kHz
Compression mode : Lossy
Stream size : 68.6 MiB (6%)
Title : СВ-Дубль
Language : Russian
Default : Yes
Forced : Yes
Text
ID : 3
Format : UTF-8
Codec ID : S_TEXT/UTF8
Codec ID/Info : UTF-8 Plain Text
Title : СВ-Дубль
Language : Russian
Default : No
Forced : No
Профиль [ЛС]
Показать сообщения:    

Текущее время: 01-Дек 03:15

Часовой пояс: UTC ± 0



Вы не можете начинать темы
Вы не можете отвечать на сообщения
Вы не можете редактировать свои сообщения
Вы не можете удалять свои сообщения
Вы не можете голосовать в опросах
Вы не можете прикреплять файлы к сообщениям
Вы не можете скачивать файлы