Статистика раздачи
Нет
 
     
 
 

MAGNAT ®

Пол:
Мужской
Стаж:
2 года 8 месяцев
Сообщений:
13012

Откуда: Москва

От бездомной собаки до супер-пса / Rescue dog to super dog
Дата/Год выпуска: 2017
Страна: США
Жанр: Документальный фильм
Продолжительность: 6 х ~ 00:46:00
Перевод: Студийный (одноголосый закадровый)
Русские субтитры: нет
Режиссер: Саймон Мюриэль / Simon Muriel, Джули Уотсон / Julie Watson
Телеканал: Viasat Nature
Описание: Нейт Шоумер и Лора Лондон - профессиональные дрессировщики собак. Они стараются найти для людей с особыми потребностями подходящих им собак, чтобы обучить их выполнять определенные задачи, которые улучшат повседневную жизнь этих людей.
качество: SATRip
формат: AVI
Видео: XviD, 720 х 400 пикс, 1600 Кбит/сек, 25,0 кадр/сек, 0.222 Бит/(Пиксели*Кадры)
Аудио: MP3, 160 Кбит/сек Постоянный, 48,0 КГц, 2 канала

Список выпусков/серий

Сезон 1. 1-я серия
Нейт и Лора ищут собаку спасателя в помощь Калани, бывшему морпеху с сильным посттравматическим синдромом, которому нужна собака, способная помочь в трудные моменты.
Сезон 1. 2-я серия
Нейт и Лора ищут собаку в помощь Томми, который страдает диабетом II типа и нуждается в собаке, которая поможет носить медикаменты и будет замечать уровень сахара в его крови.
Сезон 1. 3-я серия
Нейт и Лора ищут собак для Джесси, ветерана ВМФ, и Изабеллы, девушки с посттравматическим синдромом и депрессией, которой нужна собака, чтобы успокоить её при приступах тревоги.
Сезон 1. 4-я серия
Нейт и Лора ищут собаку в помощь Эду, сержанту ВВС в отставке, страдающему от повреждения мозга. Ему нужна собака, которая поможет приносить предметы и успокоит при ночных кошмарах.
Сезон 1. 5-я серия
Нейт и Лора ищут собаку в помощь Диане, которая потеряла часть ноги в горах и нуждается в собаке, которая будет помогать по дому и мотивировать ее вновь вести активный образ жизни.
Сезон1. 6-ясерия
Нейт и Лора ищут в приюте собак, которые помогут Иммануелю, молодому человеку, который страдает синдромом детского сотрясения и нуждается в поддержке во время частых судорог. А также подбирают собаку для женщины с постоянной депрессией и с травмой спины после военной службы.

MediaInfo

для 1 серии, остальные серии такие же
Общее
Полное имя : C:\фильмы\02 возможно для раздачи\Собаки-помощники (от бездомной собаки до суперпса) 2017г\От бездомной собаки до суперпса 2017г\1серия.avi
Формат : AVI
Формат/Информация : Audio Video Interleave
Размер файла : 582 Мбайт
Продолжительность : 45 м.
Общий поток : 1770 Кбит/сек
Видео
Идентификатор : 0
Формат : MPEG-4 Visual
Профиль формата : Advanced Simple@L4
Параметр BVOP формата : Нет
Параметр QPel формата : Нет
Параметр GMC формата : Без точки перехода
Параметр матрицы формата : Default (H.263)
Идентификатор кодека : XVID
Идентификатор кодека/Подсказка : XviD
Продолжительность : 45 м.
Битрейт : 1600 Кбит/сек
Ширина : 720 пикселей
Высота : 400 пикселей
Соотношение сторон : 16:9
Частота кадров : 25,000 кадров/сек
Цветовое пространство : YUV
Субдискретизация насыщенности : 4:2:0
Битовая глубина : 8 бит
Тип развёртки : Прогрессивная
Метод сжатия : С потерями
Бит/(Пиксели*Кадры) : 0.222
Размер потока : 526 Мбайт (90%)
Аудио
Идентификатор : 1
Формат : MPEG Audio
Версия формата : Version 1
Профиль формата : Layer 3
Идентификатор кодека : 55
Идентификатор кодека/Подсказка : MP3
Продолжительность : 45 м.
Продолжительность оригинала : 45 м.
Вид битрейта : Постоянный
Битрейт : 160 Кбит/сек
Каналы : 2 канала
Частота : 48,0 КГц
Метод сжатия : С потерями
Размер потока : 52,6 Мбайт (9%)
Выравнивание : Соединение по промежуткам
Продолжительность промежутка : 40 мс. (1,00 видеокадр)

Скриншоты и скриншот названия


Профиль [ЛС]
Показать сообщения:    

Текущее время: 01-Дек 02:53

Часовой пояс: UTC ± 0



Вы не можете начинать темы
Вы не можете отвечать на сообщения
Вы не можете редактировать свои сообщения
Вы не можете удалять свои сообщения
Вы не можете голосовать в опросах
Вы не можете прикреплять файлы к сообщениям
Вы не можете скачивать файлы