Статистика раздачи
Размер:  586 MB   |    Зарегистрирован:  8 месяцев 14 дней   |    Скачан:  0 раз
DL-List: Нет

Полного источника не было: Никогда

 
     
 
 

MAGNAT ®

Пол:
Мужской
Стаж:
1 год 8 месяцев
Сообщений:
9096

Царь Борис и самозванец
Дата/Год выпуска: 2020
Страна: Россия, ВГТРК
Жанр: Документальный, история, познавательный
Продолжительность: 00:44:36
Режиссер: Олег Солдатенков
Перевод: Не требуется
Русские субтитры: нет
Описание: Власть сама шла Борису Годунову в руки. Блестящая карьера при Иване Грозном, а затем при его сыне Фёдоре, женитьба Фёдора на сестре Годунова, не сумевшей родить наследника, смерть царевича Дмитрия в Угличе... Казалось, что сама судьба прокладывает Борису путь не только к трону, но и к созданию новой династии. И всё-таки он проиграл. Проиграл не своим главным соперникам из родовитой знати, а подставной кукле, специально посаженной на русский престол для того, чтобы уничтожить его, Бориса. Документы XVI века, исследования крупнейших российских историков, воспоминания современников Годунова помогают восстановить картину политической борьбы в период избрания Бориса, непредвзято оценить итоги его правления, понять причины его поражения…
качество: IPTVRip
формат: AVI
Видео: 720x400 (1.80:1), 25 fps, XviD build 73 ~1699 kbps avg, 0.24 bit/pixel
Аудио: 48 kHz, MPEG Layer 3, 2 ch, ~128.00 kbps avg

MediaInfo

Полное имя : D:\gotov\Царь Борис и самозванец.2020.IPTVRip.avi
Формат : AVI
Формат/Информация : Audio Video Interleave
Размер файла : 586 Мбайт
Продолжительность : 44 м.
Общий поток : 1838 Кбит/сек
Программа кодирования : VirtualDubMod 1.5.10.3 | www.virtualdub-fr.org || (build 2550/release)
Библиотека кодирования : VirtualDubMod build 2550/release
Видео
Идентификатор : 0
Формат : MPEG-4 Visual
Профиль формата : Advanced Simple@L5
Параметр BVOP формата : 2
Параметр QPel формата : Нет
Параметр GMC формата : Без точки перехода
Параметр матрицы формата : Default (H.263)
Идентификатор кодека : XVID
Идентификатор кодека/Подсказка : XviD
Продолжительность : 44 м.
Битрейт : 1700 Кбит/сек
Ширина : 720 пикселей
Высота : 400 пикселей
Соотношение сторон : 16:9
Частота кадров : 25,000 кадров/сек
Цветовое пространство : YUV
Субдискретизация насыщенности : 4:2:0
Битовая глубина : 8 бит
Тип развёртки : Прогрессивная
Метод сжатия : С потерями
Бит/(Пиксели*Кадры) : 0.236
Размер потока : 542 Мбайт (93%)
Библиотека кодирования : XviD 73
Аудио
Идентификатор : 1
Формат : MPEG Audio
Версия формата : Version 1
Профиль формата : Layer 3
Идентификатор кодека : 55
Идентификатор кодека/Подсказка : MP3
Продолжительность : 44 м.
Вид битрейта : Постоянный
Битрейт : 128 Кбит/сек
Каналы : 2 канала
Частота : 48,0 КГц
Метод сжатия : С потерями
Размер потока : 40,8 Мбайт (7%)
Выравнивание : Соединение по промежуткам
Продолжительность промежутка : 40 мс. (1,00 видеокадр)
Время предзагрузки промежутка : 504 мс.
Библиотека кодирования : LAME3.99r
Настройки программы : -m s -V 4 -q 2 -lowpass 17 -b 128

Скриншоты

[cybertorrent.ru].t13029.torrent 
Торрент: Зарегистрирован [ 2020-03-20 16:34 ] · 0F9E1E2597801076B2A3F07CCF5D759ADB1DC7A8

Скачать .torrent

Скачать

6 KB

Статус: проверено
Скачан: 0 раз
Размер: 586 MB  ·  Тип торрента
terms.php
Профиль [ЛС]
Показать сообщения:    

Текущее время: 04-Дек 03:43

Часовой пояс: UTC ± 0



Вы не можете начинать темы
Вы не можете отвечать на сообщения
Вы не можете редактировать свои сообщения
Вы не можете удалять свои сообщения
Вы не можете голосовать в опросах
Вы не можете прикреплять файлы к сообщениям
Вы можете скачивать файлы