Статистика раздачи
Размер:  2,89 GB   |    Зарегистрирован:  8 месяцев 14 дней   |    Скачан:  0 раз
DL-List: Нет

Полного источника не было: Никогда

 
     
 
 

MAGNAT ®

Пол:
Мужской
Стаж:
1 год 8 месяцев
Сообщений:
9096

Настоящая война / игра престолов / The Real War of Thrones
Дата/Год выпуска: 2017
Страна: Франция,
Жанр: Документальный, познавательный, история
Продолжительность: 4 x ~ 00:43:25
Перевод: Профессиональный (двухголосый закадровый)
Доп. инфо о переводе: СВ-Дубль
Русские субтитры: есть
Формат субтитров: softsub (SRT)
Доп. информация о субтитрах: СВ-Дубль
Режиссер: Ванесса Понте / Vanessa Pontet, Ален Брюнар / Alain Brunard
Телеканал: Культура
Описание: В бурном Средневековье, когда мир еще продолжал формироваться, сильнейшие династии Европы боролись за господство на континенте. Эта эпическая сага о соперничающих династиях приглашает зрителей окунуться в мрачную атмосферу Средневековья и знать, как к стремление к могуществу и человеческие страсти повлияли на ход мировой истории и заложили политические и социальные основы современной Европы и всего Западного мира.
Эти влиятельные семьи сталкивались на полях сражений, но самая сложная и захватывающая игра происходила за кулисами. Мощные стены средневековых замков скрывали мир стратегических альянсов, интриг, предательств и убийств. Эти эпические столкновения продолжались на протяжении нескольких веков, а их отголоски до сих пор слышны в современной культуре.
качество: DVB
формат: MKV
Видео: 720x576 (16:9) AVC (H.264) Main@L3.0, ~ 2189 kbps, 25 fps
Аудио: Русский 48 kHz, MPEG Layer 2, 2 ch, ~192.00 kbps avg

Список выпусков/серий

01. Объявление войны / War is Declared 1328-1364
В 1328 году, после смерти последнего короля из династии Капетингов, корона Франции перешла к династии Валуа. Это привело в ярость молодого английского короля Эдуарда III Плантагенета, который считал себя законным наследником французского престола. Из-за соперничества за корону Франции связи между двумя странами будут разорваны на несколько веков. Монархи начали самую долгую и кровавую войну в истории Европы. Сегодня её называют Столетней войной. Эпические исторические реконструкции переносят нас на поля сражений и в королевские покои, мы узнаем, как жажда власти и личные амбиции правителей изменили границы Франции и других европейских стран.
02. Орлеанская дева и безумный король / The Mad King and the Maiden 1392-1453
В начале XV века ослабленную Францию ждали новые потрясения. В возрасте 24 лет король Франции Карл VI сошел с ума. Франция раздираема гражданской войной между бургиньонами и арманьяками. Эти смутные времена поощряют амбиции короля Англии Генриха Пятого, трон короля Франции снова находится в опасности. Столетняя война разгорается с новой силой. Но на помощь дофину, будущему королю Франции Карлу VII, приходит 17-летняя крестьянская девушка из Домреми, словно посланная Небесами, которая видит своей миссией освобождение Франции от английских захватчиков. Так родилась легенда Жанны д'Арк.
03. Брачные игры престолов / The Marriage Game 1461-1483
Во второй половине XV века на трон Франции взошёл коварный король Людовик XI. Будучи гениальным стратегом, блестяще владеющим искусством расставлять ловушки для своих врагов, он получил прозвище "Всемирный паук". Однако макиавеллиевским планам Людовика угрожали два серьезных противника – бургундский герцог Карл Смелый и Эдуард IV Йоркский, король Англии. Готовились новые сражения. Французское королевство с трудом удерживало власть. Чтобы выиграть в этой борьбе все государства строили матримониальные планы, вступив в сложную игру бракосочетаний.
04. Король и император / The King and the Emperor 1515-1558
В начале XVI века Карл Габсбургский имел все шансы стать самым влиятельным человеком в Европе. Честолюбивый наследник испанского трона планировал также занять престол Священной Римской империи. Но Франциск I, герой битвы при Мариньяно и новый король Франции, также следил за императорским троном и был полон решимости защитить свои итальянские владения. Интриги, предательство, тюремное заключение – вся Европа, затаив дыхание, наблюдала за столкновением между императором Карлом V и королем Франциском I. Борьба привела к войне, которая длилась 27 лет. Но другой монарх выступил в роли миротворца.

MediaInfo

Complete name : F:\Наладки\SD-фильмы\Настоящая война престолов_S1\01. Объявление войны.mkv
Format : Matroska
Format version : Version 4
File size : 755 MiB
Duration : 43 min 25 s
Overall bit rate : 2 429 kb/s
Encoded date : UTC 2020-03-02 17:44:05
Writing application : mkvmerge v6.6.0 ('The Edge Of The In Between') built on Dec 1 2013 17:55:00
Writing library : libebml v1.3.0 + libmatroska v1.4.1
Video
ID : 1
Format : AVC
Format/Info : Advanced Video Codec
Format profile : Main@L3
Format settings : CABAC / 4 Ref Frames
Format settings, CABAC : Yes
Format settings, Reference : 4 frames
Codec ID : V_MPEG4/ISO/AVC
Duration : 43 min 25 s
Bit rate : 2 189 kb/s
Width : 720 pixels
Height : 576 pixels
Display aspect ratio : 16:9
Frame rate mode : Constant
Frame rate : 25.000 FPS
Standard : Component
Color space : YUV
Chroma subsampling : 4:2:0
Bit depth : 8 bits
Scan type : Interlaced
Scan type, store method : Interleaved fields
Scan order : Top Field First
Bits/(Pixel*Frame) : 0.211
Stream size : 680 MiB (90%)
Default : Yes
Forced : No
Color range : Limited
Color primaries : BT.601 PAL
Transfer characteristics : BT.470 System B/G
Matrix coefficients : BT.470 System B/G
Audio
ID : 2
Format : MPEG Audio
Format version : Version 1
Format profile : Layer 2
Codec ID : A_MPEG/L2
Codec ID/Hint : MP2
Duration : 43 min 25 s
Bit rate mode : Constant
Bit rate : 192 kb/s
Channel(s) : 2 channels
Sampling rate : 48.0 kHz
Compression mode : Lossy
Stream size : 59.6 MiB (8%)
Language : Russian
Default : Yes
Forced : No
Text
ID : 3
Format : UTF-8
Codec ID : S_TEXT/UTF8
Codec ID/Info : UTF-8 Plain Text
Title : СВ-Дубль
Language : Russian
Default : No
Forced : No
Complete name : F:\Наладки\SD-фильмы\Настоящая война престолов_S1\02. Орлеанская дева и безумный король.mkv
Format : Matroska
Format version : Version 4
File size : 776 MiB
Duration : 45 min 24 s
Overall bit rate : 2 388 kb/s
Encoded date : UTC 2020-03-02 17:45:39
Writing application : mkvmerge v6.6.0 ('The Edge Of The In Between') built on Dec 1 2013 17:55:00
Writing library : libebml v1.3.0 + libmatroska v1.4.1
Video
ID : 1
Format : AVC
Format/Info : Advanced Video Codec
Format profile : Main@L3
Format settings : CABAC / 4 Ref Frames
Format settings, CABAC : Yes
Format settings, Reference : 4 frames
Codec ID : V_MPEG4/ISO/AVC
Duration : 45 min 24 s
Bit rate : 2 149 kb/s
Width : 720 pixels
Height : 576 pixels
Display aspect ratio : 16:9
Frame rate mode : Constant
Frame rate : 25.000 FPS
Standard : Component
Color space : YUV
Chroma subsampling : 4:2:0
Bit depth : 8 bits
Scan type : Interlaced
Scan type, store method : Interleaved fields
Scan order : Top Field First
Bits/(Pixel*Frame) : 0.207
Stream size : 698 MiB (90%)
Default : Yes
Forced : No
Color range : Limited
Color primaries : BT.601 PAL
Transfer characteristics : BT.470 System B/G
Matrix coefficients : BT.470 System B/G
Audio
ID : 2
Format : MPEG Audio
Format version : Version 1
Format profile : Layer 2
Codec ID : A_MPEG/L2
Codec ID/Hint : MP2
Duration : 45 min 24 s
Bit rate mode : Constant
Bit rate : 192 kb/s
Channel(s) : 2 channels
Sampling rate : 48.0 kHz
Compression mode : Lossy
Stream size : 62.4 MiB (8%)
Language : Russian
Default : Yes
Forced : No
Text
ID : 3
Format : UTF-8
Codec ID : S_TEXT/UTF8
Codec ID/Info : UTF-8 Plain Text
Title : СВ-Дубль
Language : Russian
Default : No
Forced : No
Complete name : F:\Наладки\SD-фильмы\Настоящая война престолов_S1\03. Брачные игры престолов.mkv
Format : Matroska
Format version : Version 4
File size : 723 MiB
Duration : 46 min 19 s
Overall bit rate : 2 181 kb/s
Encoded date : UTC 2020-03-02 17:46:20
Writing application : mkvmerge v6.6.0 ('The Edge Of The In Between') built on Dec 1 2013 17:55:00
Writing library : libebml v1.3.0 + libmatroska v1.4.1
Video
ID : 1
Format : AVC
Format/Info : Advanced Video Codec
Format profile : Main@L3
Format settings : CABAC / 4 Ref Frames
Format settings, CABAC : Yes
Format settings, Reference : 4 frames
Codec ID : V_MPEG4/ISO/AVC
Bit rate : 1 946 kb/s
Width : 720 pixels
Height : 576 pixels
Display aspect ratio : 16:9
Frame rate mode : Variable
Original frame rate : 25.000 FPS
Standard : Component
Color space : YUV
Chroma subsampling : 4:2:0
Bit depth : 8 bits
Scan type : Interlaced
Scan type, store method : Separated fields
Scan order : Top Field First
Default : Yes
Forced : No
Color range : Limited
Color primaries : BT.601 PAL
Transfer characteristics : BT.470 System B/G
Matrix coefficients : BT.470 System B/G
Audio
ID : 2
Format : MPEG Audio
Format version : Version 1
Format profile : Layer 2
Codec ID : A_MPEG/L2
Codec ID/Hint : MP2
Duration : 46 min 19 s
Bit rate mode : Constant
Bit rate : 192 kb/s
Channel(s) : 2 channels
Sampling rate : 48.0 kHz
Compression mode : Lossy
Stream size : 63.6 MiB (9%)
Language : Russian
Default : Yes
Forced : No
Text
ID : 3
Format : UTF-8
Codec ID : S_TEXT/UTF8
Codec ID/Info : UTF-8 Plain Text
Title : СВ-Дубль
Language : Russian
Default : No
Forced : No
Complete name : F:\Наладки\SD-фильмы\Настоящая война престолов_S1\04. Король и император.mkv
Format : Matroska
Format version : Version 4
File size : 707 MiB
Duration : 45 min 37 s
Overall bit rate : 2 165 kb/s
Encoded date : UTC 2020-03-02 17:46:53
Writing application : mkvmerge v6.6.0 ('The Edge Of The In Between') built on Dec 1 2013 17:55:00
Writing library : libebml v1.3.0 + libmatroska v1.4.1
Video
ID : 1
Format : AVC
Format/Info : Advanced Video Codec
Format profile : Main@L3
Format settings : CABAC / 4 Ref Frames
Format settings, CABAC : Yes
Format settings, Reference : 4 frames
Codec ID : V_MPEG4/ISO/AVC
Bit rate : 1 930 kb/s
Width : 720 pixels
Height : 576 pixels
Display aspect ratio : 16:9
Frame rate mode : Variable
Original frame rate : 25.000 FPS
Standard : Component
Color space : YUV
Chroma subsampling : 4:2:0
Bit depth : 8 bits
Scan type : Interlaced
Scan type, store method : Separated fields
Scan order : Top Field First
Default : Yes
Forced : No
Color range : Limited
Color primaries : BT.601 PAL
Transfer characteristics : BT.470 System B/G
Matrix coefficients : BT.470 System B/G
Audio
ID : 2
Format : MPEG Audio
Format version : Version 1
Format profile : Layer 2
Codec ID : A_MPEG/L2
Codec ID/Hint : MP2
Duration : 45 min 37 s
Bit rate mode : Constant
Bit rate : 192 kb/s
Channel(s) : 2 channels
Sampling rate : 48.0 kHz
Compression mode : Lossy
Stream size : 62.7 MiB (9%)
Language : Russian
Default : Yes
Forced : No
Text
ID : 3
Format : UTF-8
Codec ID : S_TEXT/UTF8
Codec ID/Info : UTF-8 Plain Text
Title : СВ-Дубль
Language : Russian
Default : No
Forced : No
[cybertorrent.ru].t13031.torrent 
Торрент: Зарегистрирован [ 2020-03-20 16:35 ] · 4AC919153DDF250A10C46600726B9015AFAFD73B

Скачать .torrent

Скачать

15 KB

Статус: проверено
Скачан: 0 раз
Размер: 2,89 GB  ·  Тип торрента
terms.php
Профиль [ЛС]
Показать сообщения:    

Текущее время: 04-Дек 03:34

Часовой пояс: UTC ± 0



Вы не можете начинать темы
Вы не можете отвечать на сообщения
Вы не можете редактировать свои сообщения
Вы не можете удалять свои сообщения
Вы не можете голосовать в опросах
Вы не можете прикреплять файлы к сообщениям
Вы можете скачивать файлы