Статистика раздачи
Размер:  2,98 GB   |    Зарегистрирован:  8 месяцев 14 дней   |    Скачан:  0 раз
DL-List: Нет

Полного источника не было: Никогда

 
     
 
 

MAGNAT ®

Пол:
Мужской
Стаж:
1 год 8 месяцев
Сообщений:
9096

Кельты: Кровь и железо / The Celts
Дата/Год выпуска: 2016
Страна: Германия, Англия, Франция, ARTE, BBC, ZDF
Жанр: Документальный, археология, антропология, история
Продолжительность: 3 x ~ 00:52:37
Перевод: Студийный (одноголосый закадровый)
Доп. инфо о переводе: СВ-Дубль
Русские субтитры: нет
Режиссер: Джереми Холл / Jeremy Hall, Михаэль Лахманн / Michael Lachmann
Телеканал: Культура
Описание: Кельты – одни из самых загадочных народов древности. В первом тысячелетии до нашей эры в Европе племена , принадлежавшие к этой культуре, обитали на обширных территориях от Британских островов до горных плато Анатолии. Современные европейцы живут там, где некогда жили кельты. Они – часть нашего прошлого, но знаем мы о них очень мало. Современные метод археологических исследований и научного анализа открывают широчайшие возможности для понимания загадочной кельтской цивилизации. В этом документальном сериале зрители познакомятся с обычаями и верованиями древних кельтов, узнают о подвигах их знаменитых вождей, храбро противостоявших натиску Римской империи.
качество: DVB
формат: TS
Видео: 720x576 (16:9) AVC (H.264) Main@L3.0, ~ 2424 kbps, 25 fps
Аудио: Русский 48 kHz, MPEG Layer 2, 2 ch, ~192.00 kbps avg

Список выпусков/серий

01. У Римских врат / At the Gates of Rome
Эта серия посвящена происхождению кельтской цивилизации и их первым контактам с римлянами. Мы узнаем о первом вторжении галлов в Римскую республику в IV веке до нашей эры и знаменитой битве при Аллии, в ходе которой римские войска были сокрушены стремительной атакой галлов под предводительством их вождя Бренна. В те времена захват Рима был страшным ударом по амбициям города, посягавшего на господство в Центральной Италии. Но это поражение побудило римлян восстановить свои силы и вернуться на путь побед в кратчайшие сроки. Осада Рима кельтским войском стала не концом, а началом превращения города в мировую державу. Три века спустя римляне настолько усовершенствовали свою военную технику и тактику, что даже кельтам, когда-то наводившим страх на врагов, стало нечего им противопоставить.
02. Битва за Галлию / A Fight for Gaul
Около четырёхсот пятидесятого года до нашей эры греческий историк Геродот упомянул о северных племенах, назвав их кельтами – так мы зовём их и сейчас. Поначалу кельтские племена наводили ужас на их соседей, однако со временем другая цивилизация в южных землях набирала все большую силу – Римская империя готовилась подчинить варваров своему влиянию. Кельты основали первые городища на севере Альпийских гор и наладили дальние торговые связи, которые принесли им несметные богатства. Всё это было поставлено на кон, когда Рим двинулся дальше на север. В середине первого века до нашей эры кельты и римляне приготовились к неизбежному столкновению. Этот эпизод повествует о противостоянии кельтского вождя Верцингеторига и Юлия Цезаря в эпической битве, которая определила будущее Европы.
03. Восстание Боудикка / The Revolt of Boudica
В первом веке нашей эры кельтские племена Британии, враждовавшие между собой, объединились. Они были последними носителями древней культуры, ещё сохранявшими независимость. За сто лет до этого, с победой Юлия Цезаря над Верцингеторигом, кельтскому владычеству в континентальной Европе пришёл конец. Лишь по ту сторону Ла-Манша кельты ещё могли жить свободно и в согласии со старыми традициями. Археологические находки рассказывают о мастерстве их ремесленников, о ритуалах друидов, которые сегодня нам кажутся дикими и жестокими. Однако, весь кельтский уклад жизни оказался под угрозой, когда римляне приготовились к завоеванию последних кельтских земель. Но захватчики встретят сопротивление с неожиданной стороны. Их врагом станет женщина – королева Боудикка. Это история последнего мощного сопротивления кельтской цивилизации против римских захватчиков.

MediaInfo

Complete name : F:\Наладки\SD-фильмы\Кельты\01. У Римских врат.ts
Format : MPEG-TS
File size : 1.01 GiB
Duration : 52 min 38 s
Overall bit rate mode : Variable
Overall bit rate : 2 754 kb/s
Video
ID : 2271 (0x8DF)
Menu ID : 15047 (0x3AC7)
Format : AVC
Format/Info : Advanced Video Codec
Format profile : Main@L3
Format settings : CABAC / 4 Ref Frames
Format settings, CABAC : Yes
Format settings, Reference : 4 frames
Codec ID : 27
Duration : 52 min 37 s
Bit rate : 2 424 kb/s
Width : 720 pixels
Height : 576 pixels
Display aspect ratio : 16:9
Frame rate : 25.000 FPS
Standard : Component
Color space : YUV
Chroma subsampling : 4:2:0
Bit depth : 8 bits
Scan type : Interlaced
Scan type, store method : Separated fields
Scan order : Top Field First
Bits/(Pixel*Frame) : 0.234
Stream size : 913 MiB (88%)
Color range : Limited
Color primaries : BT.601 PAL
Transfer characteristics : BT.470 System B/G
Matrix coefficients : BT.470 System B/G
Audio
ID : 2272 (0x8E0)
Menu ID : 15047 (0x3AC7)
Format : MPEG Audio
Format version : Version 1
Format profile : Layer 2
Codec ID : 3
Duration : 52 min 38 s
Bit rate mode : Constant
Bit rate : 192 kb/s
Channel(s) : 2 channels
Sampling rate : 48.0 kHz
Frame rate : 41.667 FPS (1152 SPF)
Compression mode : Lossy
Delay relative to video : -120 ms
Stream size : 72.3 MiB (7%)
Language : Russian
Text
ID : 2273 (0x8E1)-888
Menu ID : 15047 (0x3AC7)
Format : Teletext Subtitle
Language : Russian
Other
ID : 2273 (0x8E1)-100
Menu ID : 15047 (0x3AC7)
Format : Teletext
Language : Russian
Complete name : F:\Наладки\SD-фильмы\Кельты\02. Битва за Галлию.ts
Format : MPEG-TS
File size : 1.03 GiB
Duration : 51 min 48 s
Overall bit rate mode : Variable
Overall bit rate : 2 838 kb/s
Video
ID : 2271 (0x8DF)
Menu ID : 15047 (0x3AC7)
Format : AVC
Format/Info : Advanced Video Codec
Format profile : Main@L3
Format settings : CABAC / 4 Ref Frames
Format settings, CABAC : Yes
Format settings, Reference : 4 frames
Codec ID : 27
Duration : 51 min 48 s
Bit rate : 2 504 kb/s
Width : 720 pixels
Height : 576 pixels
Display aspect ratio : 16:9
Frame rate : 25.000 FPS
Standard : Component
Color space : YUV
Chroma subsampling : 4:2:0
Bit depth : 8 bits
Scan type : Interlaced
Scan type, store method : Separated fields
Scan order : Top Field First
Bits/(Pixel*Frame) : 0.242
Stream size : 928 MiB (88%)
Color range : Limited
Color primaries : BT.601 PAL
Transfer characteristics : BT.470 System B/G
Matrix coefficients : BT.470 System B/G
Audio
ID : 2272 (0x8E0)
Menu ID : 15047 (0x3AC7)
Format : MPEG Audio
Format version : Version 1
Format profile : Layer 2
Codec ID : 3
Duration : 51 min 48 s
Bit rate mode : Constant
Bit rate : 192 kb/s
Channel(s) : 2 channels
Sampling rate : 48.0 kHz
Frame rate : 41.667 FPS (1152 SPF)
Compression mode : Lossy
Stream size : 71.2 MiB (7%)
Language : Russian
Text
ID : 2273 (0x8E1)-888
Menu ID : 15047 (0x3AC7)
Format : Teletext Subtitle
Language : Russian
Other
ID : 2273 (0x8E1)-100
Menu ID : 15047 (0x3AC7)
Format : Teletext
Language : Russian
Complete name : F:\Наладки\SD-фильмы\Кельты\03. Восстание Боудикка.ts
Format : MPEG-TS
File size : 960 MiB
Duration : 51 min 1 s
Overall bit rate mode : Variable
Overall bit rate : 2 629 kb/s
Video
ID : 2271 (0x8DF)
Menu ID : 15047 (0x3AC7)
Format : AVC
Format/Info : Advanced Video Codec
Format profile : Main@L3
Format settings : CABAC / 4 Ref Frames
Format settings, CABAC : Yes
Format settings, Reference : 4 frames
Codec ID : 27
Duration : 51 min 1 s
Bit rate : 2 305 kb/s
Width : 720 pixels
Height : 576 pixels
Display aspect ratio : 16:9
Frame rate : 25.000 FPS
Standard : Component
Color space : YUV
Chroma subsampling : 4:2:0
Bit depth : 8 bits
Scan type : Interlaced
Scan type, store method : Separated fields
Scan order : Top Field First
Bits/(Pixel*Frame) : 0.222
Stream size : 841 MiB (88%)
Color range : Limited
Color primaries : BT.601 PAL
Transfer characteristics : BT.470 System B/G
Matrix coefficients : BT.470 System B/G
Audio
ID : 2272 (0x8E0)
Menu ID : 15047 (0x3AC7)
Format : MPEG Audio
Format version : Version 1
Format profile : Layer 2
Codec ID : 3
Duration : 51 min 1 s
Bit rate mode : Constant
Bit rate : 192 kb/s
Channel(s) : 2 channels
Sampling rate : 48.0 kHz
Frame rate : 41.667 FPS (1152 SPF)
Compression mode : Lossy
Delay relative to video : -120 ms
Stream size : 70.1 MiB (7%)
Language : Russian
Text
ID : 2273 (0x8E1)-888
Menu ID : 15047 (0x3AC7)
Format : Teletext Subtitle
Language : Russian
Other
ID : 2273 (0x8E1)-100
Menu ID : 15047 (0x3AC7)
Format : Teletext
Language : Russian
[cybertorrent.ru].t13035.torrent 
Торрент: Зарегистрирован [ 2020-03-20 16:37 ] · 10AC5DEC64975F4179BB0E3C7656F3CCE2E14D1C

Скачать .torrent

Скачать

16 KB

Статус: проверено
Скачан: 0 раз
Размер: 2,98 GB  ·  Тип торрента
terms.php
Профиль [ЛС]
Показать сообщения:    

Текущее время: 04-Дек 16:33

Часовой пояс: UTC ± 0



Вы не можете начинать темы
Вы не можете отвечать на сообщения
Вы не можете редактировать свои сообщения
Вы не можете удалять свои сообщения
Вы не можете голосовать в опросах
Вы не можете прикреплять файлы к сообщениям
Вы можете скачивать файлы