Статистика раздачи
Размер:  4,15 GB   |    Зарегистрирован:  8 месяцев 14 дней   |    Скачан:  0 раз
DL-List: Нет

Полного источника не было: Никогда

 
     
 
 

MAGNAT ®

Пол:
Мужской
Стаж:
1 год 8 месяцев
Сообщений:
9096

Разгадка тайны пирамид (6 серий из 6) / The Pyramids: Solving the Mystery
Дата/Год выпуска: 2018
Страна: Франция, ZED, Label News-Label Image
Жанр: Документальный, история, археология, исследования
Продолжительность: 6 х ~00:47:00
Перевод: Студийный (одноголосый закадровый)
Доп. инфо о переводе: студия «SDI Media»
Режиссер: Лайонел Лэнглэйд / Lionel Langlade
Телеканал: Viasat History
Описание: От Каира до Мейдума археологические раскопки в Египте впервые были сняты дроном, чтобы показать их скрытые сокровища ...
Строительство египетских пирамид остается нерешенной загадкой. Многочисленные скрытые пирамиды и захороненные остатки еще не обнаружены.
Но сегодня египтологи и археологи разработали новый инструмент, который использует аэрофотоснимки и спутниковые изображения, чтобы предоставить ценные свежие подсказки о положении, конструкции и эволюции этих зданий.
Девять из них исследуются с совершенно новой точки зрения: захватывающая ступенчатая пирамида Джосера; таинственная Бент Пирамида и близлежащая Красная Пирамида; самое известное, но не менее загадочное трио пирамид на плато в Гизе; захватывающая пирамида в Мейдуме; сфинкс; и малоизученная местность Абу Раваш, известная как самый северный пирамидальный некрополь.
В каждом эпизоде, благодаря CGI, спутниковым снимкам и передовой авиационной археологии, эта серия ставит своей целью расшифровать тайны строительства пирамид и воссоздать Египет, как это было более 5000 лет назад.
качество: HDTVRip
формат: AVI
Видео: 720x400 (1.80:1), 25 fps, XviD build 73 ~1899 kbps avg, 0.26 bit/pixel
Аудио: 48 kHz, AC3 Dolby Digital, 2/0 (L,R) ch, ~192.00 kbps avg

Список выпусков/серий

1. Саккара: первая пирамида / Saqqar, the First Piramid
2. Хеопс и гробница секретов/ Khufu and Tomb of Secrets
3. Медум и тайна фальшивой пирамиды / Meidum and the Mystery of the Piramid
4. Дахшур - невероятное открытие / Dahshur - an Incredible Discovery
5. Последние загадки Гизы / The Last Secrets of Giza
6. Абу Раваш и потерянная пирамида / Abu Rawash - The Lost Piramid

MediaInfo

Общее
Полное имя : D:\Запись\Разгадка тайны пирамид\Разгадка.тайны.пирамид.2018.XviD.HDTVRip.alf62\03.Медум.и.тайна.фальшивой.пирамиды.2018.XviD.HDTVRip.alf62.avi
Формат : AVI
Формат/Информация : Audio Video Interleave
Размер файла : 707 Мбайт
Продолжительность : 47 м.
Общий поток : 2102 Кбит/сек
Программа кодирования : VirtualDubMod 1.5.10.3 | www.virtualdub-fr.org || (build 2550/release)
Библиотека кодирования : VirtualDubMod build 2550/release
Видео
Идентификатор : 0
Формат : MPEG-4 Visual
Профиль формата : Advanced Simple@L5
Параметр BVOP формата : 2
Параметр QPel формата : Нет
Параметр GMC формата : Без точки перехода
Параметр матрицы формата : Default (MPEG)
Идентификатор кодека : XVID
Идентификатор кодека/Подсказка : XviD
Продолжительность : 47 м.
Битрейт : 1900 Кбит/сек
Ширина : 720 пикселей
Высота : 400 пикселей
Соотношение сторон : 16:9
Частота кадров : 25,000 кадров/сек
Цветовое пространство : YUV
Субдискретизация насыщенности : 4:2:0
Битовая глубина : 8 бит
Тип развёртки : Прогрессивная
Метод сжатия : С потерями
Бит/(Пиксели*Кадры) : 0.264
Размер потока : 639 Мбайт (90%)
Библиотека кодирования : XviD 73
Аудио
Идентификатор : 1
Формат : AC-3
Формат/Информация : Audio Coding 3
Расширение режима : CM (complete main)
Параметр Endianness формата : Big
Идентификатор кодека : 2000
Продолжительность : 47 м.
Вид битрейта : Постоянный
Битрейт : 192 Кбит/сек
Каналы : 2 канала
Расположение каналов : Front: L R
Частота : 48,0 КГц
Частота кадров : 31,250 кадров/сек (1536 spf)
Метод сжатия : С потерями
Размер потока : 64,6 Мбайт (9%)
Выравнивание : Разделение по промежуткам
Продолжительность промежутка : 40 мс. (1,00 видеокадр)
Время предзагрузки промежутка : 500 мс.

Скриншоты

[cybertorrent.ru].t13039.torrent 
Торрент: Зарегистрирован [ 2020-03-20 16:40 ] · 1F1462D94A59387527EC687D0F8F17DBB4CD9978

Скачать .torrent

Скачать

12 KB

Статус: проверено
Скачан: 0 раз
Размер: 4,15 GB  ·  Тип торрента
terms.php
Профиль [ЛС]
Показать сообщения:    

Текущее время: 04-Дек 16:38

Часовой пояс: UTC ± 0



Вы не можете начинать темы
Вы не можете отвечать на сообщения
Вы не можете редактировать свои сообщения
Вы не можете удалять свои сообщения
Вы не можете голосовать в опросах
Вы не можете прикреплять файлы к сообщениям
Вы можете скачивать файлы