Статистика раздачи
Размер:  6,17 GB   |    Зарегистрирован:  8 месяцев 15 дней   |    Скачан:  0 раз
DL-List: Нет

Полного источника не было: Никогда

 
     
 
 

MAGNAT ®

Пол:
Мужской
Стаж:
1 год 8 месяцев
Сообщений:
9096

Восемь дней, которые создали Рим / Eight Days That Made Rome
Дата/Год выпуска: 2017
Страна: Великобритания, October Films LTD
Жанр: Документальный, история
Продолжительность: 8 x ~00:43:37
Перевод: Профессиональный (двухголосый закадровый)
Доп. инфо о переводе: СВ-Дубль
Русские субтитры: есть
Формат субтитров: softsub (SRT)
Доп. информация о субтитрах: СВ-Дубль
Режиссер: Гарет Джонсон / Gareth Johnson
Телеканал: Культура
Описание: Древний Рим – одна из самых могущественных держав в истории. Ее уникальное наследие до сих пор определяет нашу жизнь. Почти тысячу лет римляне владели ойкуменой. Эпоха расцвета этой выдающейся империи принесла римлянам невиданное процветание и стабильность, но в их основе лежали насилие и рабство. Возвышение Рима не было предопределено – порой новый поворот в его истории зависел от одного-единственного критического момента. В этом сериале историк Беттани Хьюз раскажет о восьми судьбоносных днях, которые, на ее взгляд, помогают понять беспрецедентный успех Рима. Чтобы оченить значение этих дней в полной мере, она совершила путешествие по древнеримскому миру: по местам археологических раскопок, чтобы изучить новые поразительные находки...
качество: DVB
формат: MKV
Видео: 720x576 (16:9) AVC (H.264) Main@L3.0, ~ 2348 kbps, 25fps
Аудио: Русский 48 kHz, MPEG Layer 2, 2 ch, ~192.00 kbps avg

Список выпусков/серий

01. Последний бой Ганнибала / Hannibal's Last Stand
19 октября 202 года до нашей эры в живописных песках Северной Африки решалась судьба двух великих цивилизаций в местечке под названием Зама. Ключевой день в истории древнего мира – в решающем противоборстве между великим Карфагеном и набиравшим силу Римом победитель получал всё. Это день, когда римский полководец Публий Корнелий Сципион сошёлся лицом к лицу с легендарным Ганнибалом, за которым стояла вся мощь Карфагенской империи. То сражение должно было стать ответом на вопрос: достанет ли у Рима сил покорить и возглавить античный мир?
02. Восстание Спартака / The Spartacus Revolt
В один из летних дней семьдесят третьего года до нашей эры, группа рабов совершила побег и вступила в противоборство с могучим Римом. Их возглавил легендарный человек, один из самых прославленных вождей в истории – Спартак. В Капуе, в ста шестидесяти километрах к югу от Рима, Спартак возглавил группу рабов-гладиаторов, прошедших боевую подготовку, с отчаянной целью совершить побег. Их смертельно опасный демарш закончился массовым восстанием, а для Римской республики обернулся жесточайшим кризисом.
03. Переход через Рубикон / Caesar Crosses the Rubicon
В этот день, в 49 году до нашей эры, Юлий Цезарь пересек реку Рубикон во главе своей победоносной армии, и начался кровавый переворот, в результате которого пала Римская республика. В критический момент своей истории Римская республика встала перед выбором: остаться верной своим принципам народовластия или наблюдать, как власть начинает служить интересам избранных. Этот конфликт достиг своего пика в исторический день, когда Цезарь, перейдя Рубикон, объявил республике войну.
04. Первый римский император / Rome's First Emperor
В этот день, в 32 году до нашей эры, как нам сообщают историки, честолюбивый молодой сенатор Октавиан приказал украсть тайное завещание своего соперника Марка Антония и огласил его крайне противоречивое содержание римскому Сенату. Этот момент стал одним из ключевых в истории Рима – Октавиан совершил решающий шаг в борьбе против Марка Антония, с которым соперничал за власть в супердержаве. После победы Октавиана его нарекут Августом. Под таким именем он будет править Римом, став его первый императором.
05. Месть Боудикки / Boudica's Revenge
События этого дня произошли здесь, в Британии, примерно в 60 году нашей эры. В этот день римляне надругались над королевой гордого местного племени Боудиккой. Это спровоцировало восстание, каких ещё не видывал Рим. Этот день показал, сколь хрупкой была власть империи. И каких усилий стоило её сохранение. Жестокость обернулась против самих захватчиков. Римляне попытались подчинить себе народ Боудикки. Но в реальности это вызвало мощную волну гражданского неповиновения и бунты, которые могли охватить всю Британию.
06. Падение Нерона / The Downfall of Nero
9 июня 68 года нашей эры первая династия империи пресеклась из-за трагической гибели злонравного и властолюбивого императора Нерона. Его крутой нрав, тщеславие и жестокость неожиданно сплотили весь Рим против него, что привело Нерона к смерти после того, как он стал жалким изгнанником, преследуемым военными. В последний день жизни Нерона над ним, одним из печально известных императоров, свершилось кровавое поругание. Более того, тот день дал начало эпохе борьбы и гражданских войн.
07. Торжественное открытие Колизея / The Colosseum's Grand Opening
Одно из ключевых событий в истории Рима произошло в самом сердце города, в 80 году нашей эры. Когда император Тит Флавий открыл величайший исторический памятник Рима – Колизей. День открытия этого грандиозного сооружения стал новым подтверждением того, что именно насилие помогло Римской империи захватить мир. Даже сегодня Колизей является впечатляющим свидетельством мощи Римской империи на пике её расцвета. День его открытия был важнейшим для новой императорской династии, отчаянно цеплявшейся за власть.
08. Возрождение империи / The Rebirth of Rome
В тот день, в мае 337 года нашей эры, император Константин принял крещение: это было окончательное признание новой религии, определившей историю Рима, да и всего мира, на следующее тысячелетие. Константин Великий, как его потом назовут, – одна из самых удивительных и сложных личностей древнеримской истории. Константин порвал с языческими традициями древнего Рима и основал новую столицу империи. Последствия его решений мы ощущаем по сей день.

MediaInfo

Complete name : F:\Наладки\SD-фильмы\8 дней_которые создали Рим\01. Последний бой Ганнибала.mkv
Format : Matroska
Format version : Version 4
File size : 809 MiB
Duration : 43 min 37 s
Overall bit rate : 2 591 kb/s
Encoded date : UTC 2019-10-06 05:44:35
Writing application : mkvmerge v6.6.0 ('The Edge Of The In Between') built on Dec 1 2013 17:55:00
Writing library : libebml v1.3.0 + libmatroska v1.4.1
Video
ID : 1
Format : AVC
Format/Info : Advanced Video Codec
Format profile : Main@L3
Format settings : CABAC / 4 Ref Frames
Format settings, CABAC : Yes
Format settings, Reference : 4 frames
Codec ID : V_MPEG4/ISO/AVC
Bit rate : 2 348 kb/s
Width : 720 pixels
Height : 576 pixels
Display aspect ratio : 16:9
Frame rate mode : Variable
Original frame rate : 25.000 FPS
Standard : Component
Color space : YUV
Chroma subsampling : 4:2:0
Bit depth : 8 bits
Scan type : Interlaced
Scan type, store method : Separated fields
Scan order : Top Field First
Default : Yes
Forced : No
Color range : Limited
Color primaries : BT.601 PAL
Transfer characteristics : BT.470 System B/G
Matrix coefficients : BT.470 System B/G
Audio
ID : 2
Format : MPEG Audio
Format version : Version 1
Format profile : Layer 2
Codec ID : A_MPEG/L2
Codec ID/Hint : MP2
Duration : 43 min 37 s
Bit rate mode : Constant
Bit rate : 192 kb/s
Channel(s) : 2 channels
Sampling rate : 48.0 kHz
Compression mode : Lossy
Stream size : 59.9 MiB (7%)
Title : СВ-Дубль
Language : Russian
Default : Yes
Forced : Yes
Text
ID : 3
Format : UTF-8
Codec ID : S_TEXT/UTF8
Codec ID/Info : UTF-8 Plain Text
Title : СВ-Дубль
Language : Russian
Default : No
Forced : No
Complete name : F:\Наладки\SD-фильмы\8 дней_которые создали Рим\02. Восстание Спартака.mkv
Format : Matroska
Format version : Version 4
File size : 823 MiB
Duration : 43 min 16 s
Overall bit rate : 2 660 kb/s
Encoded date : UTC 2019-10-06 05:47:06
Writing application : mkvmerge v6.6.0 ('The Edge Of The In Between') built on Dec 1 2013 17:55:00
Writing library : libebml v1.3.0 + libmatroska v1.4.1
Video
ID : 1
Format : AVC
Format/Info : Advanced Video Codec
Format profile : Main@L3
Format settings : CABAC / 4 Ref Frames
Format settings, CABAC : Yes
Format settings, Reference : 4 frames
Codec ID : V_MPEG4/ISO/AVC
Bit rate : 2 415 kb/s
Width : 720 pixels
Height : 576 pixels
Display aspect ratio : 16:9
Frame rate mode : Variable
Original frame rate : 25.000 FPS
Standard : Component
Color space : YUV
Chroma subsampling : 4:2:0
Bit depth : 8 bits
Scan type : Interlaced
Scan type, store method : Separated fields
Scan order : Top Field First
Default : Yes
Forced : No
Color range : Limited
Color primaries : BT.601 PAL
Transfer characteristics : BT.470 System B/G
Matrix coefficients : BT.470 System B/G
Audio
ID : 2
Format : MPEG Audio
Format version : Version 1
Format profile : Layer 2
Codec ID : A_MPEG/L2
Codec ID/Hint : MP2
Duration : 43 min 16 s
Bit rate mode : Constant
Bit rate : 192 kb/s
Channel(s) : 2 channels
Sampling rate : 48.0 kHz
Compression mode : Lossy
Stream size : 59.4 MiB (7%)
Title : СВ-Дубль
Language : Russian
Default : Yes
Forced : Yes
Text
ID : 3
Format : UTF-8
Codec ID : S_TEXT/UTF8
Codec ID/Info : UTF-8 Plain Text
Title : СВ-Дубль
Language : Russian
Default : No
Forced : No
Complete name : F:\Наладки\SD-фильмы\8 дней_которые создали Рим\03. Переход через Рубикон.mkv
Format : Matroska
Format version : Version 4
File size : 720 MiB
Duration : 43 min 45 s
Overall bit rate : 2 300 kb/s
Encoded date : UTC 2019-10-06 05:48:00
Writing application : mkvmerge v6.6.0 ('The Edge Of The In Between') built on Dec 1 2013 17:55:00
Writing library : libebml v1.3.0 + libmatroska v1.4.1
Video
ID : 1
Format : AVC
Format/Info : Advanced Video Codec
Format profile : Main@L3
Format settings : CABAC / 4 Ref Frames
Format settings, CABAC : Yes
Format settings, Reference : 4 frames
Codec ID : V_MPEG4/ISO/AVC
Bit rate : 2 062 kb/s
Width : 720 pixels
Height : 576 pixels
Display aspect ratio : 16:9
Frame rate mode : Variable
Original frame rate : 25.000 FPS
Standard : Component
Color space : YUV
Chroma subsampling : 4:2:0
Bit depth : 8 bits
Scan type : Interlaced
Scan type, store method : Separated fields
Scan order : Top Field First
Default : Yes
Forced : No
Color range : Limited
Color primaries : BT.601 PAL
Transfer characteristics : BT.470 System B/G
Matrix coefficients : BT.470 System B/G
Audio
ID : 2
Format : MPEG Audio
Format version : Version 1
Format profile : Layer 2
Codec ID : A_MPEG/L2
Codec ID/Hint : MP2
Duration : 43 min 45 s
Bit rate mode : Constant
Bit rate : 192 kb/s
Channel(s) : 2 channels
Sampling rate : 48.0 kHz
Compression mode : Lossy
Stream size : 60.1 MiB (8%)
Title : СВ-Дубль
Language : Russian
Default : Yes
Forced : Yes
Text
ID : 3
Format : UTF-8
Codec ID : S_TEXT/UTF8
Codec ID/Info : UTF-8 Plain Text
Title : СВ-Дубль
Language : Russian
Default : No
Forced : No
Complete name : F:\Наладки\SD-фильмы\8 дней_которые создали Рим\05. Месть Боудикки.mkv
Format : Matroska
Format version : Version 4
File size : 856 MiB
Duration : 43 min 16 s
Overall bit rate : 2 764 kb/s
Encoded date : UTC 2019-10-06 05:50:23
Writing application : mkvmerge v6.6.0 ('The Edge Of The In Between') built on Dec 1 2013 17:55:00
Writing library : libebml v1.3.0 + libmatroska v1.4.1
Video
ID : 1
Format : AVC
Format/Info : Advanced Video Codec
Format profile : Main@L3
Format settings : CABAC / 4 Ref Frames
Format settings, CABAC : Yes
Format settings, Reference : 4 frames
Codec ID : V_MPEG4/ISO/AVC
Bit rate : 2 517 kb/s
Width : 720 pixels
Height : 576 pixels
Display aspect ratio : 16:9
Frame rate mode : Variable
Original frame rate : 25.000 FPS
Standard : Component
Color space : YUV
Chroma subsampling : 4:2:0
Bit depth : 8 bits
Scan type : Interlaced
Scan type, store method : Separated fields
Scan order : Top Field First
Default : Yes
Forced : No
Color range : Limited
Color primaries : BT.601 PAL
Transfer characteristics : BT.470 System B/G
Matrix coefficients : BT.470 System B/G
Audio
ID : 2
Format : MPEG Audio
Format version : Version 1
Format profile : Layer 2
Codec ID : A_MPEG/L2
Codec ID/Hint : MP2
Duration : 43 min 16 s
Bit rate mode : Constant
Bit rate : 192 kb/s
Channel(s) : 2 channels
Sampling rate : 48.0 kHz
Compression mode : Lossy
Stream size : 59.4 MiB (7%)
Title : СВ-Дубль
Language : Russian
Default : Yes
Forced : Yes
Text
ID : 3
Format : UTF-8
Codec ID : S_TEXT/UTF8
Codec ID/Info : UTF-8 Plain Text
Title : СВ-Дубль
Language : Russian
Default : No
Forced : No
Complete name : F:\Наладки\SD-фильмы\8 дней_которые создали Рим\08. Возрождение империи.mkv
Format : Matroska
Format version : Version 4
File size : 805 MiB
Duration : 43 min 35 s
Overall bit rate : 2 581 kb/s
Encoded date : UTC 2019-10-06 05:53:54
Writing application : mkvmerge v6.6.0 ('The Edge Of The In Between') built on Dec 1 2013 17:55:00
Writing library : libebml v1.3.0 + libmatroska v1.4.1
Video
ID : 1
Format : AVC
Format/Info : Advanced Video Codec
Format profile : Main@L3
Format settings : CABAC / 4 Ref Frames
Format settings, CABAC : Yes
Format settings, Reference : 4 frames
Codec ID : V_MPEG4/ISO/AVC
Bit rate : 2 338 kb/s
Width : 720 pixels
Height : 576 pixels
Display aspect ratio : 16:9
Frame rate mode : Variable
Original frame rate : 25.000 FPS
Standard : Component
Color space : YUV
Chroma subsampling : 4:2:0
Bit depth : 8 bits
Scan type : Interlaced
Scan type, store method : Separated fields
Scan order : Top Field First
Default : Yes
Forced : No
Color range : Limited
Color primaries : BT.601 PAL
Transfer characteristics : BT.470 System B/G
Matrix coefficients : BT.470 System B/G
Audio
ID : 2
Format : MPEG Audio
Format version : Version 1
Format profile : Layer 2
Codec ID : A_MPEG/L2
Codec ID/Hint : MP2
Duration : 43 min 35 s
Bit rate mode : Constant
Bit rate : 192 kb/s
Channel(s) : 2 channels
Sampling rate : 48.0 kHz
Compression mode : Lossy
Stream size : 59.9 MiB (7%)
Title : СВ-Дубль
Language : Russian
Default : Yes
Forced : Yes
Text
ID : 3
Format : UTF-8
Codec ID : S_TEXT/UTF8
Codec ID/Info : UTF-8 Plain Text
Title : СВ-Дубль
Language : Russian
Default : No
Forced : No
[cybertorrent.ru].t13042.torrent 
Торрент: Зарегистрирован [ 2020-03-20 16:42 ] · B0094B6382906C668EE2815ACE9467B4BC80E90D

Скачать .torrent

Скачать

32 KB

Статус: проверено
Скачан: 0 раз
Размер: 6,17 GB  ·  Тип торрента
terms.php
Профиль [ЛС]
Показать сообщения:    

Текущее время: 04-Дек 17:49

Часовой пояс: UTC ± 0



Вы не можете начинать темы
Вы не можете отвечать на сообщения
Вы не можете редактировать свои сообщения
Вы не можете удалять свои сообщения
Вы не можете голосовать в опросах
Вы не можете прикреплять файлы к сообщениям
Вы можете скачивать файлы