Статистика раздачи
Размер:  1,21 GB   |    Зарегистрирован:  8 месяцев 14 дней   |    Скачан:  0 раз
DL-List: Нет

Полного источника не было: Никогда

 
     
 
 

MAGNAT ®

Пол:
Мужской
Стаж:
1 год 8 месяцев
Сообщений:
9096

Швейцарские археологи в поисках любви
Archéologie en Suisse, à la recherche de l'amour- Год выпуска: 2018
Страна: Швейцария
Жанр: документальный, исторический
Продолжительность: 00:51:46
Перевод: Субтитры (русский перевод компании Hiventy)
Русские субтитры: естьФормат субтитров: prerendered (IDX+SUB), softsub (SRT)
Доп. информация о субтитрах: русские, английские, французские, немецкие, нидерландские, румынские, испанские - (IDX+SUB); английские, французские - (SRT)
Оригинальная аудиодорожка: французский
Режиссер: Йо Зиглер / Jo Siegler, Нильс Вайбель / Niels Waibel
Канал: TV5MONDE Europe
Описание: Как археология может помочь нам понять любовь и сексуальность? Изучение артефактов Средневековья, Античности и даже эпохи палеолита позволяет провести интересную параллель между тем, что воодушевляло и вдохновляло человечество с незапамятных временен и до нашего времени.
качество: DVB
формат: MKV
Видео: MPEG Video 2, 720x576 (16:9), 25 fps, ~3093 kbps avg, 0.298 bit/pixel
Аудио: MPEG Audio 2, 2 ch, 48 kHz, 192.00 kbps - французский

MediaInfo

General
Unique ID : 45292921689920481165943112296168097475 (0x221319734548BCACD9B83514627B06C3)
Complete name : [apreder]Archeologie_en_Suisse_a_la_recherche_de_l'amour(2018)DVB.mkv
Format : Matroska
Format version : Version 2
File size : 1.21 GiB
Duration : 51 min 46 s
Overall bit rate mode : Variable
Overall bit rate : 3 351 kb/s
Movie name : Archeologie en suisse, а la recherche de l'amour
Released date : 2018-00-00
Encoded date : UTC 2019-09-29 13:32:03
Writing application : mkvmerge v37.0.0 ('Leave It') 64-bit
Writing library : libebml v1.3.9 + libmatroska v1.5.2
Cover : Yes
Attachments : cover.png / small_cover.png
DIRECTOR : Jo Siegler, Niels Waibel
GENRE : Documentary
KEYWORDS : rutracker.org
LAW_RATING : 16+
Video
ID : 1
Format : MPEG Video
Format version : Version 2
Format profile : Main@Main
Format settings : CustomMatrix / BVOP
Format settings, BVOP : Yes
Format settings, Matrix : Custom
Format settings, GOP : Variable
Format settings, picture structure : Frame
Codec ID : V_MPEG2
Codec ID/Info : MPEG 1 or 2 Video
Duration : 51 min 46 s
Bit rate mode : Variable
Bit rate : 3 093 kb/s
Width : 720 pixels
Height : 576 pixels
Display aspect ratio : 16:9
Frame rate mode : Constant
Frame rate : 25.000 FPS
Standard : PAL
Color space : YUV
Chroma subsampling : 4:2:0
Bit depth : 8 bits
Scan type : Interlaced
Scan order : Top Field First
Compression mode : Lossy
Bits/(Pixel*Frame) : 0.298
Time code of first frame : 00:00:00:00
Time code source : Group of pictures header
GOP, Open/Closed : Open
GOP, Open/Closed of first frame : Closed
Stream size : 1.12 GiB (92%)
Default : Yes
Forced : No
Audio
ID : 2
Format : MPEG Audio
Format version : Version 1
Format profile : Layer 2
Format settings : Joint stereo / Intensity Stereo + MS Stereo
Codec ID : A_MPEG/L2
Codec ID/Hint : MP2
Duration : 51 min 46 s
Bit rate mode : Constant
Bit rate : 192 kb/s
Channel(s) : 2 channels
Sampling rate : 48.0 kHz
Compression mode : Lossy
Stream size : 71.1 MiB (6%)
Language : French
Default : Yes
Forced : No
Text #1
ID : 3
Format : VobSub
Codec ID : S_VOBSUB
Codec ID/Info : Picture based subtitle format used on DVDs
Language : Russian
Default : No
Forced : No
Text #2
ID : 4
Format : VobSub
Codec ID : S_VOBSUB
Codec ID/Info : Picture based subtitle format used on DVDs
Language : English
Default : No
Forced : No
Text #3
ID : 5
Format : UTF-8
Codec ID : S_TEXT/UTF8
Codec ID/Info : UTF-8 Plain Text
Title : Teletexte
Language : English
Default : No
Forced : No
Text #4
ID : 6
Format : VobSub
Codec ID : S_VOBSUB
Codec ID/Info : Picture based subtitle format used on DVDs
Language : French
Default : No
Forced : No
Text #5
ID : 7
Format : UTF-8
Codec ID : S_TEXT/UTF8
Codec ID/Info : UTF-8 Plain Text
Title : Teletexte
Language : French
Default : No
Forced : No
Text #6
ID : 8
Format : VobSub
Codec ID : S_VOBSUB
Codec ID/Info : Picture based subtitle format used on DVDs
Language : German
Default : No
Forced : No
Text #7
ID : 9
Format : VobSub
Codec ID : S_VOBSUB
Codec ID/Info : Picture based subtitle format used on DVDs
Language : Dutch
Default : No
Forced : No
Text #8
ID : 10
Format : VobSub
Codec ID : S_VOBSUB
Codec ID/Info : Picture based subtitle format used on DVDs
Language : Romanian
Default : No
Forced : No
Text #9
ID : 11
Format : VobSub
Codec ID : S_VOBSUB
Codec ID/Info : Picture based subtitle format used on DVDs
Language : Spanish
Default : No
Forced : No

Скриншоты


Резервные скриншоты


-
[cybertorrent.ru].t13043.torrent 
Торрент: Зарегистрирован [ 2020-03-20 16:43 ] · 677C0BBF318715F515AAA3B3AA8287D65D80AEC7

Скачать .torrent

Скачать

13 KB

Статус: проверено
Скачан: 0 раз
Размер: 1,21 GB  ·  Тип торрента
terms.php
Профиль [ЛС]
Показать сообщения:    

Текущее время: 04-Дек 04:01

Часовой пояс: UTC ± 0



Вы не можете начинать темы
Вы не можете отвечать на сообщения
Вы не можете редактировать свои сообщения
Вы не можете удалять свои сообщения
Вы не можете голосовать в опросах
Вы не можете прикреплять файлы к сообщениям
Вы можете скачивать файлы