Статистика раздачи
Размер:  2,8 GB   |    Зарегистрирован:  8 месяцев 6 дней   |    Скачан:  0 раз
DL-List: Нет

Полного источника не было: Никогда

 
     
 
 

MAGNAT ®

Пол:
Мужской
Стаж:
1 год 7 месяцев
Сообщений:
9096

Рыцари / Die Welt der Ritter
Дата/Год выпуска: 2014
Страна: Германия, Gruppe 5 Filmproduktion, ZDF
Жанр: Документальный, история
Продолжительность: 3 х ~00:51:42
Перевод: Студийный (одноголосый закадровый)
Доп. инфо о переводе: Видеофильм ТВ
Режиссер: Кристиан Фэйрабенд / Christian Feyerabend
Телеканал: Техно 24
Описание: Рыцари... Как они пережили заговоры, распри и осады? Как они побеждали в поединках или крупных сражениях? Зачем они сражались в турнирах и как они вошли в легенды? Поскольку они окончательно не вымерли то живут и по сей день: в кино, видеоиграх и фестивалях. В этом сериале мы проследим путь становления рыцарства от самого начала и до последних дней, узнаем что представляло собой оружие рыцаря, как создавались луки, мечи и кольчуга. Познакомимся с жилищами рыцарей и их бытом. Примем участие в рыцарских турнирах, походах и войнах, которые вели рыцари.
качество: DVB
формат: TS
Видео: 720x576 (16:9) AVC (H.264) Main@L3.0, ~ 2518 kbps, 25fps
Аудио: Русский 48 kHz, MPEG Layer 2, 2 ch, ~192.00 kbps avg

Список выпусков/серий

01. Закованные в железо / Helden aus Eisen
Первый эпизод показывает начало рыцарства в раннем средневековье. Когда всадник стал рыцарем? Одним из первых настоящих рыцарей мог быть Генрих Тангель из армии Отто I.
02. Во имя чести и славы / Für Ruhm und Ehre
В 11 веке рыцари стали христианскими рыцарями. О крестовых походах, осадах замка и роли женщин во втором эпизоде.
03. Последний в своем роде / Die Letzten ihrer Art
В течение половины тысячелетия рыцари доминировали в войне, но в 16 веке Максимилиан I закончил эру «людей в железе».

MediaInfo

Complete name : F:\Наладки\SD-фильмы\Рыцари\01. Закованные в железо.ts
Format : MPEG-TS
File size : 1.03 GiB
Duration : 51 min 41 s
Overall bit rate mode : Variable
Overall bit rate : 2 853 kb/s
Video
ID : 1057 (0x421)
Menu ID : 5005 (0x138D)
Format : AVC
Format/Info : Advanced Video Codec
Format profile : Main@L3
Format settings : CABAC / 4 Ref Frames
Format settings, CABAC : Yes
Format settings, Reference : 4 frames
Codec ID : 27
Duration : 51 min 41 s
Bit rate : 2 518 kb/s
Width : 720 pixels
Height : 576 pixels
Display aspect ratio : 16:9
Frame rate : 25.000 FPS
Standard : Component
Color space : YUV
Chroma subsampling : 4:2:0
Bit depth : 8 bits
Scan type : Interlaced
Scan type, store method : Separated fields
Scan order : Top Field First
Bits/(Pixel*Frame) : 0.243
Stream size : 931 MiB (88%)
Color range : Limited
Color primaries : BT.601 PAL
Transfer characteristics : BT.470 System B/G
Matrix coefficients : BT.470 System B/G
Audio
ID : 1058 (0x422)
Menu ID : 5005 (0x138D)
Format : MPEG Audio
Format version : Version 1
Format profile : Layer 2
Codec ID : 3
Duration : 51 min 41 s
Bit rate mode : Constant
Bit rate : 192 kb/s
Channel(s) : 2 channels
Sampling rate : 48.0 kHz
Frame rate : 41.667 FPS (1152 SPF)
Compression mode : Lossy
Stream size : 71.0 MiB (7%)
Language : Russian
Complete name : F:\Наладки\SD-фильмы\Рыцари\02. Во имя чести и славы.ts
Format : MPEG-TS
File size : 942 MiB
Duration : 49 min 22 s
Overall bit rate mode : Variable
Overall bit rate : 2 668 kb/s
Video
ID : 1057 (0x421)
Menu ID : 5005 (0x138D)
Format : AVC
Format/Info : Advanced Video Codec
Format profile : Main@L3
Format settings : CABAC / 4 Ref Frames
Format settings, CABAC : Yes
Format settings, Reference : 4 frames
Codec ID : 27
Duration : 49 min 22 s
Bit rate : 2 342 kb/s
Width : 720 pixels
Height : 576 pixels
Display aspect ratio : 16:9
Frame rate : 25.000 FPS
Standard : Component
Color space : YUV
Chroma subsampling : 4:2:0
Bit depth : 8 bits
Scan type : Interlaced
Scan type, store method : Separated fields
Scan order : Top Field First
Bits/(Pixel*Frame) : 0.226
Stream size : 827 MiB (88%)
Color range : Limited
Color primaries : BT.601 PAL
Transfer characteristics : BT.470 System B/G
Matrix coefficients : BT.470 System B/G
Audio
ID : 1058 (0x422)
Menu ID : 5005 (0x138D)
Format : MPEG Audio
Format version : Version 1
Format profile : Layer 2
Codec ID : 3
Duration : 49 min 22 s
Bit rate mode : Constant
Bit rate : 192 kb/s
Channel(s) : 2 channels
Sampling rate : 48.0 kHz
Frame rate : 41.667 FPS (1152 SPF)
Compression mode : Lossy
Delay relative to video : -120 ms
Stream size : 67.8 MiB (7%)
Language : Russian
Complete name : F:\Наладки\SD-фильмы\Рыцари\03. Последний в своем роде.ts
Format : MPEG-TS
File size : 874 MiB
Duration : 49 min 43 s
Overall bit rate mode : Variable
Overall bit rate : 2 458 kb/s
Video
ID : 1057 (0x421)
Menu ID : 5005 (0x138D)
Format : AVC
Format/Info : Advanced Video Codec
Format profile : Main@L3
Format settings : CABAC / 4 Ref Frames
Format settings, CABAC : Yes
Format settings, Reference : 4 frames
Codec ID : 27
Duration : 49 min 42 s
Bit rate : 2 143 kb/s
Width : 720 pixels
Height : 576 pixels
Display aspect ratio : 16:9
Frame rate : 25.000 FPS
Standard : Component
Color space : YUV
Chroma subsampling : 4:2:0
Bit depth : 8 bits
Scan type : Interlaced
Scan type, store method : Separated fields
Scan order : Top Field First
Bits/(Pixel*Frame) : 0.207
Stream size : 762 MiB (87%)
Color range : Limited
Color primaries : BT.601 PAL
Transfer characteristics : BT.470 System B/G
Matrix coefficients : BT.470 System B/G
Audio
ID : 1058 (0x422)
Menu ID : 5005 (0x138D)
Format : MPEG Audio
Format version : Version 1
Format profile : Layer 2
Codec ID : 3
Duration : 49 min 42 s
Bit rate mode : Constant
Bit rate : 192 kb/s
Channel(s) : 2 channels
Sampling rate : 48.0 kHz
Frame rate : 41.667 FPS (1152 SPF)
Compression mode : Lossy
Delay relative to video : -120 ms
Stream size : 68.3 MiB (8%)
Language : Russian

Скриншоты анаморф 1047x576



[cybertorrent.ru].t13047.torrent 
Торрент: Зарегистрирован [ 2020-03-20 16:46 ] · 0BDA1946627A18ED37DF2CFD08DF11C69EB141E5

Скачать .torrent

Скачать

15 KB

Статус: проверено
Скачан: 0 раз
Размер: 2,8 GB  ·  Тип торрента
terms.php
Профиль [ЛС]
Показать сообщения:    

Текущее время: 27-Ноя 08:30

Часовой пояс: UTC ± 0



Вы не можете начинать темы
Вы не можете отвечать на сообщения
Вы не можете редактировать свои сообщения
Вы не можете удалять свои сообщения
Вы не можете голосовать в опросах
Вы не можете прикреплять файлы к сообщениям
Вы можете скачивать файлы