Статистика раздачи
Размер:  6,55 GB   |    Зарегистрирован:  8 месяцев 14 дней   |    Скачан:  0 раз
DL-List: Нет

Полного источника не было: Никогда

 
     
 
 

MAGNAT ®

Пол:
Мужской
Стаж:
1 год 8 месяцев
Сообщений:
9096

Загадки Египта (1-10 серия из 10) / Egypt's Unexplained Files
Дата/Год выпуска: 2018
Страна: Великобритания, 360 Production
Жанр: Документальный, познавательный, история
Продолжительность: 10 х ~ 00:44:19
Перевод: Студийный (одноголосый закадровый)
Доп. инфо о переводе: студия «SDI Media»
Телеканал: Viasat History
Описание: Древний Египет - одна из величайших цивилизаций мира, насчитывающая 3000 лет истории. Но даже сегодня это страна загадок. В течение последних двух веков, с тех пор как впервые очистили от песка Великого Сфинкса, археологи и историки постепенно раскрывают ее секреты. Тем не менее, эксперты считают, что некоторые из наиболее важных открытий в этом древнем мире еще лежат под песками пустыни.
Сегодня, новые технологии позволяют раскрыть некоторые из самых устойчивых загадок древнего Египта, чтобы увидеть скрытые истины, которые переписывают историю человечества. В сериале исследуются эти загадки, сочетающие в себе экспертный научный анализ и свидетельства археологов, чтобы пролить свет на скрытый мир древних.
качество: HDTVRip
формат: AVI
Видео: 720x400 (1.80:1), 25 fps, XviD build 73 ~1899 kbps avg, 0.26 bit/pixel
Аудио: 48 kHz, AC3 Dolby Digital, 2/0 (L,R) ch, ~192.00 kbps avg

Список выпусков/серий

1. Строительство сверхдержавы / Building a Superpower
Эпизод раскрывает о древнеегипетской сверхдержаве, которую мы знаем сегодня. Он рассказывает историю Великой пирамиды в Гизе и то, как одно открытие переписывает то, что мы сегодня знаем о том, как были построены пирамиды. В нем рассматривается образ самой знаменитой египетской царицы Клеопатры и то, как эксперты буквально воссоздают ее внешний вид, используя новейшие технологии.
2. Смерть и загробная жизнь / Death and the After Life
Мы исследуем тайны, стоящие за одержимостью древних египтян смертью и загробной жизнью. Используя передовую новую науку, мы раскрываем секреты внеземных артефактов, похороненных вместе с фараоном, и выявляем новые свидетельства, раскрывающие сложную работу по бальзамированию мумий.
3. Преступления и наказания в Древнем Египте
Можно ли доказать, что Рамзеса III убили? Могут ли современные технологии разгадать загадку самой знаменитой статуи царицы Нефертити?
4. Загадки элиты Древнего Египта
Могут ли передовые технологии помочь найти могилу легендарного жреца Имхотепа? Прольет ли свет разбитая статуя на загадочную Крокодилью Царицу?
5. Вера и суеверие / Belief and Superstition
С помощью науки, рассмотрим новые понимания в веры и суеверий на земле фараонов, начиная с поиска давно потерянной земли и заканчивая разгадкой тайны проклятия фараона Тутанхамона.
6. Тайны египетского гения
Смогут ли ученные объяснить странные отметины в пустыне замеченные из космоса? Были ли египтяне первыми хирургами? И сможет ли современная технология, пролить свет на то, почему столица фараонов была обнаружена в двух разных местах?
7. Тайны злодеяний и пороков
Сможет ли передовая наука, обнаружить следы убийства, совершенного 5 тысяч лет тому назад? Существовали ли в Египте человеческие жертвоприношения и каннибализм?
8. Объекты поклонения
Поможет ли новейшая технология подземного сканирования обнаружить руины древней столицы Танис? Может ли появление древней ДНК наконец раскрыть давнее дело фараона Тута? Прольет ли современное 3D моделирование свет на многовековую загадку Сфинкса?
9. Здоровье и богатство
Может ли содержимое утерянного артефакта раскрыть убийство древней царицы? Могут ли новейшие технологии рассказать, как умерла женщина, и остается ли что ее убило, все еще угрозой? Может ли наука ХХ-го века, доказать, что найденная мумия - это мумия самой знаменитой царицы Египта?
10. Загадки упадка древнего Египта
Катаклизмы в древнем Египте могли быть вызваны необычайным набором международных явлений, а новейшие технологии помогают выявить сверхъестественного виновника. То, что эксперты обнаружили эксперты, покажет правду, незнакомую с выдумкой.

MediaInfo

Общее
Полное имя : D:\Запись\Загадки Египта\Загадки.Египта.2018.XviD.HDTVRip.alf62\01.Строительство.сверхдержавы.XviD.HDTVRip.alf62.avi
Формат : AVI
Формат/Информация : Audio Video Interleave
Размер файла : 666 Мбайт
Продолжительность : 44 м.
Общий поток : 2102 Кбит/сек
Программа кодирования : VirtualDubMod 1.5.10.3 | www.virtualdub-fr.org || (build 2550/release)
Библиотека кодирования : VirtualDubMod build 2550/release
Видео
Идентификатор : 0
Формат : MPEG-4 Visual
Профиль формата : Advanced Simple@L5
Параметр BVOP формата : 2
Параметр QPel формата : Нет
Параметр GMC формата : Без точки перехода
Параметр матрицы формата : Default (MPEG)
Идентификатор кодека : XVID
Идентификатор кодека/Подсказка : XviD
Продолжительность : 44 м.
Битрейт : 1900 Кбит/сек
Ширина : 720 пикселей
Высота : 400 пикселей
Соотношение сторон : 16:9
Частота кадров : 25,000 кадров/сек
Цветовое пространство : YUV
Субдискретизация насыщенности : 4:2:0
Битовая глубина : 8 бит
Тип развёртки : Прогрессивная
Метод сжатия : С потерями
Бит/(Пиксели*Кадры) : 0.264
Размер потока : 602 Мбайт (90%)
Библиотека кодирования : XviD 73
Аудио
Идентификатор : 1
Формат : AC-3
Формат/Информация : Audio Coding 3
Расширение режима : CM (complete main)
Параметр Endianness формата : Big
Идентификатор кодека : 2000
Продолжительность : 44 м.
Вид битрейта : Постоянный
Битрейт : 192 Кбит/сек
Каналы : 2 канала
Расположение каналов : Front: L R
Частота : 48,0 КГц
Частота кадров : 31,250 кадров/сек (1536 spf)
Метод сжатия : С потерями
Размер потока : 60,9 Мбайт (9%)
Выравнивание : Разделение по промежуткам
Продолжительность промежутка : 40 мс. (1,00 видеокадр)
Время предзагрузки промежутка : 500 мс.
[cybertorrent.ru].t13048.torrent 
Торрент: Зарегистрирован [ 2020-03-20 16:46 ] · 8AC9750C90F86E91C891679469C7270F4C41E8ED

Скачать .torrent

Скачать

18 KB

Статус: проверено
Скачан: 0 раз
Размер: 6,55 GB  ·  Тип торрента
terms.php
Профиль [ЛС]
Показать сообщения:    

Текущее время: 04-Дек 03:44

Часовой пояс: UTC ± 0



Вы не можете начинать темы
Вы не можете отвечать на сообщения
Вы не можете редактировать свои сообщения
Вы не можете удалять свои сообщения
Вы не можете голосовать в опросах
Вы не можете прикреплять файлы к сообщениям
Вы можете скачивать файлы