Статистика раздачи
Размер:  853 MB   |    Зарегистрирован:  8 месяцев 15 дней   |    Скачан:  0 раз
DL-List: Нет

Полного источника не было: Никогда

 
     
 
 

MAGNAT ®

Пол:
Мужской
Стаж:
1 год 8 месяцев
Сообщений:
9096

-Сады наслаждений Древних Помпеев
The Gardens of Pompeii / Pompeii and the Gardens of Otium
- Год выпуска: 2016
Страна: Италия, Великобритания
Жанр: Документальный, древний мир, архитектура
Продолжительность: 00:43:59-Перевод: Профессиональный (двухголосый закадровый) СВ-Дубль
Субтитры: русские, полные-Режиссер: Симона Риси / Simona Risi-Описание: В первые десятилетия существования Римской империи побережье Кампании было местом отдыха римских богачей. Роскошная вилла с видом на Неаполитанский залив была символом высокого статуса. Но это было не просто загородное жильё, а дома для отдыха с изысканно оформленными садами.
В таком саду римские аристократы наслаждались благородным римским искусством отдыха или "отиумом". Сады служили местом для прогулок с друзьями, изобильных пиршеств, возлияний и самых утонченных наслаждений, которые могла предложить жизнь. У всех аристократов, государственных деятелей были виллы в Кампании. Римляне говорили, что это – самая красивая часть Средиземноморья.
В семьдесят девятом году нашей эры этот гламурный образ жизни пришел к катастрофическому концу. Виллы и сады ниже Везувия застыли во времени, став одновременно жутким символом человеческой трагедии и уникальным свидетельством консервации исторического периода.-Качество видео: DVB 576i
Формат видео: MKV
Видео кодек: H.264 / MPEG-4 AVC
Аудио кодек: MP2 / MPEG Audio
Видео: 720@1047x576 (16:9), 25 fps, ~2466 kbps, 0.238 bit/pixel
Аудио: 48 kHz, 2 channels (dual mono), ~192 kbps
Формат субтитров: softsub (SRT), вшиты в контейнер-

MediaInfo

Общее
Уникальный идентификатор : 216716402032403784727034803755831785849 (0xA30A0F91561BF9728C19BD00F92FF979)
Полное имя : C:\Torrent\The Gardens of Pompeii.2016.DVB.DVO(СВ-Дубль)\The Gardens of Pompeii.2016.DVB.DVO(СВ-Дубль).mkv
Формат : Matroska
Версия формата : Version 4 / Version 2
Размер файла : 853 Мбайт
Продолжительность : 43 м.
Общий поток : 2712 Кбит/сек
Дата кодирования : UTC 2019-03-26 18:58:11
Программа кодирования : mkvmerge v6.1.0 ('Old Devil') built on Mar 4 2013 09:10:42
Библиотека кодирования : libebml v1.3.0 + libmatroska v1.4.0
Видео
Идентификатор : 1
Формат : AVC
Формат/Информация : Advanced Video Codec
Профиль формата : Main@L3
Параметр CABAC формата : Да
Параметр ReFrames формата : 4 кадра
Параметр GOP формата : M=4, N=28
Идентификатор кодека : V_MPEG4/ISO/AVC
Продолжительность : 43 м.
Битрейт : 2466 Кбит/сек
Ширина : 720 пикселей
Высота : 576 пикселей
Соотношение сторон : 16:9
Режим частоты кадров : Постоянный
Частота кадров : 25,000 кадров/сек
Стандарт вещания : Component
Цветовое пространство : YUV
Субдискретизация насыщенности : 4:2:0
Битовая глубина : 8 бит
Тип развёртки : Чересстрочная
Метод сохранения типа развёртки : Раздельные поля
Порядок развёртки : Верхнее поле первое
Бит/(Пиксели*Кадры) : 0.238
Размер потока : 776 Мбайт (91%)
Default : Да
Forced : Нет
Цветовой диапазон : Limited
Основные цвета : BT.601 PAL
Характеристики трансфера : BT.470 System B, BT.470 System G
Коэффициенты матрицы : BT.601
Аудио
Идентификатор : 2
Формат : MPEG Audio
Версия формата : Version 1
Профиль формата : Layer 2
Идентификатор кодека : A_MPEG/L2
Идентификатор кодека/Подсказка : MP2
Продолжительность : 43 м.
Вид битрейта : Постоянный
Битрейт : 192 Кбит/сек
Каналы : 2 канала
Частота : 48,0 КГц
Метод сжатия : С потерями
Размер потока : 60,4 Мбайт (7%)
Заголовок : DVO (СВ-Дубль)
Язык : Russian
Default : Да
Forced : Нет
Текст
Идентификатор : 3
Формат : UTF-8
Идентификатор кодека : S_TEXT/UTF8
Идентификатор кодека/Информация : UTF-8 Plain Text
Заголовок : Rus Sub (ВГТРК)
Язык : Russian
Default : Нет
Forced : Нет
[cybertorrent.ru].t13053.torrent 
Торрент: Зарегистрирован [ 2020-03-20 16:49 ] · 3885B4CC1D6DB19C181D24A2A4BF86BB13971BCA

Скачать .torrent

Скачать

9 KB

Статус: проверено
Скачан: 0 раз
Размер: 853 MB  ·  Тип торрента
terms.php
Профиль [ЛС]
Показать сообщения:    

Текущее время: 04-Дек 17:04

Часовой пояс: UTC ± 0



Вы не можете начинать темы
Вы не можете отвечать на сообщения
Вы не можете редактировать свои сообщения
Вы не можете удалять свои сообщения
Вы не можете голосовать в опросах
Вы не можете прикреплять файлы к сообщениям
Вы можете скачивать файлы