Статистика раздачи
Размер:  1,37 GB   |    Зарегистрирован:  2 месяца   |    Скачан:  0 раз
DL-List: Нет

Полного источника не было: Никогда

 
     
 
 

MAGNAT ®

Пол:
Мужской
Стаж:
1 год 2 месяца
Сообщений:
7620

Три центуриона / I tre centurioni / Les trois centurions / Three Swords for Rome
Страна: Италия
Жанр: Приключения, исторический
Год выпуска: 1964
Продолжительность: 01:22:01
Перевод: Одноголосый закадровый Алексей Медведев
Субтитры: нет
Режиссер: Роберто Маури / Roberto Mauri
В ролях: Роджер Браун, Миммо Пальмара, Марио Новелли, Лиза Гастони, Марио Феличиани ,Филипп Эрсен, Уолтер Брэнди, Нерио Бернарди, Вера Вальмонт
Описание: Трое друзей-центурионов, служащих в провинции в римском войске, оставляют службу и уезжают в город, где правит мрачный культ богини Тайси. Фанатики-жрецы подменили официального правителя в городе, и народ живет в страхе.
Храбрые и мужественные герои поступают на службу инструкторами и учат боевым искусствам солдат крепости. В провинции тем временем усиливаются мятежи против власти Рима.
Один из центурионов влюбляется в прекрасную царицу, и это влечет за собой страшные дворцовые интриги со стороны предателей трона…
Но друзья с честью выходят из трудных ситуаций. Они одержат победу над злом, вступив в кровавый поединок с самозванцами…
Качество видео: VHSRip
Формат видео: AVI
Видео: 704x384 (1.83:1), 25 fps, XviD build 73 ~2182 kbps avg, 0.32 bit/pixel
Аудио: 48 kHz, AC3 Dolby Digital, 2/0 (L,R) ch, ~192 kbps

MediaInfo

Три центуриона - I tre centurioni [by alenavova].avi
Format : AVI
Format/Info : Audio Video Interleave
File size : 1.37 GiB
Duration : 1 h 22 min
Overall bit rate : 2 384 kb/s
Movie name : Три центуриона - I tre centurioni [by alenavova]
Director : by alenavova
Writing application : VirtualDubMod 1.5.10.3 | www.virtualdub-fr.org || (build 2550/release)
Copyright : Edich2
Comment : RuTracker.org
Video
ID : 0
Format : MPEG-4 Visual
Format profile : Advanced Simple@L5
Format settings : BVOP1 / Custom Matrix
Format settings, BVOP : 1
Format settings, QPel : No
Format settings, GMC : No warppoints
Format settings, Matrix : Custom
Codec ID : XVID
Codec ID/Hint : XviD
Duration : 1 h 22 min
Bit rate : 2 183 kb/s
Width : 704 pixels
Height : 384 pixels
Display aspect ratio : 1.85:1
Frame rate : 25.000 FPS
Color space : YUV
Chroma subsampling : 4:2:0
Bit depth : 8 bits
Scan type : Progressive
Compression mode : Lossy
Bits/(Pixel*Frame) : 0.323
Stream size : 1.25 GiB (92%)
Writing library : XviD 73
Audio
ID : 1
Format : AC-3
Format/Info : Audio Coding 3
Codec ID : 2000
Duration : 1 h 22 min
Bit rate mode : Constant
Bit rate : 192 kb/s
Channel(s) : 2 channels
Channel positions : Front: L R
Sampling rate : 48.0 kHz
Frame rate : 31.250 FPS (1536 SPF)
Bit depth : 16 bits
Compression mode : Lossy
Stream size : 113 MiB (8%)
Alignment : Split accross interleaves
Interleave, duration : 40 ms (1.00 video frame)
Interleave, preload duratio : 500 ms
Service kind : Complete Main

Скриншоты


[cybertorrent.ru].t13593.torrent 
Торрент: Зарегистрирован [ 2020-03-29 19:03 ] · 2EDE49A350FFD187D06A2B9CB041D3E348A9146C

Скачать .torrent

Скачать

14 KB

Статус: проверено
Скачан: 0 раз
Размер: 1,37 GB  ·  Тип торрента
terms.php
Профиль [ЛС]
Показать сообщения:    

Текущее время: 29-Май 20:56

Часовой пояс: UTC ± 0



Вы не можете начинать темы
Вы не можете отвечать на сообщения
Вы не можете редактировать свои сообщения
Вы не можете удалять свои сообщения
Вы не можете голосовать в опросах
Вы не можете прикреплять файлы к сообщениям
Вы можете скачивать файлы