Статистика раздачи
Размер:  1,37 GB   |    Зарегистрирован:  2 месяца   |    Скачан:  0 раз
DL-List: Нет

Полного источника не было: Никогда

 
     
 
 

MAGNAT ®

Пол:
Мужской
Стаж:
1 год 2 месяца
Сообщений:
7620

Картошка / Patate
Страна: Италия, Франция
Жанр: Комедия
Год выпуска: 1964
Продолжительность: 01:30:05
Перевод: Одноголосый закадровый Линда
Субтитры: Русские
Оригинальная аудиодорожка: Французский
Режиссер: Робер Тома / Robert Thomas
В ролях: Жан Марэ, Даниель Дарьё, Анн Вернон, Сильви Вартан, Пьер Дюкс, Жана Маркен, Ноэль Роквер, Юбер Дешам, Жак Жуанно, Анри Вирложё, Майк Маршалл, Лоранс Бади, Даниэль Секкальди, Франсуа Шаре, Жюли Дассен
Описание: «Что за комиссия, Создатель, быть взрослой дочери отцом!» – вслед за героем бессмертной грибоедовской комедии мог бы воскликнуть изобретатель механических игрушек Леон Ролло. Но и без легкомысленной Алексы забот у Леона хватает, ведь все его попытки выгодно пристроить свои изобретения оканчиваются неудачей. Скрепя сердце, Леон соглашается на уговоры жены Эдит обратиться за помощью к своему бывшему однокашнику Ноэлю Карадину, попавшему – благодаря женитьбе на богатой наследнице – в высшие светские и финансовые круги Парижа. Взаимная неприязнь Леона и Ноэля началась еще в детстве: не кто иной, как красавчик Карадин дал недотепе Ролло обидное прозвище «Картошка», – однако наступает день, когда Леону выпадает шанс поквитаться с соперником за многолетние унижения.
Качество видео: TVRip
Формат видео: AVI
Видео: XVID, 720х304, 25.000 fps, 1 781 Kbps
Аудио 1: Русский (AC3 192 kbps 2 ch 48.0 KHz)
Аудио 2: Французский (AC3 192 kbps 2 ch 48.0 KHz)
Формат субтитров: softsub (SRT)

MediaInfo

General
Complete name : C:\Documents and Settings\admin\Мои документы\Downloads\Patate 1964\Patate.avi
Format : AVI
Format/Info : Audio Video Interleave
File size : 1.37 GiB
Duration : 1h 30mn
Overall bit rate : 2 174 Kbps
Writing application : VirtualDubMod 1.5.4.1 (build 2178/release)
Writing library : VirtualDubMod build 2178/release
Video
ID : 0
Format : MPEG-4 Visual
Format profile : Advanced Simple@L5
Format settings, BVOP : 1
Format settings, QPel : No
Format settings, GMC : No warppoints
Format settings, Matrix : Custom
Codec ID : XVID
Codec ID/Hint : XviD
Duration : 1h 30mn
Bit rate : 1 781 Kbps
Width : 720 pixels
Height : 304 pixels
Display aspect ratio : 2.35:1
Frame rate : 25.000 fps
Color space : YUV
Chroma subsampling : 4:2:0
Bit depth : 8 bits
Scan type : Progressive
Compression mode : Lossy
Bits/(Pixel*Frame) : 0.326
Stream size : 1.12 GiB (82%)
Writing library : XviD 67
Audio #1
ID : 1
Format : AC-3
Format/Info : Audio Coding 3
Mode extension : CM (complete main)
Format settings, Endianness : Big
Codec ID : 2000
Duration : 1h 30mn
Bit rate mode : Constant
Bit rate : 192 Kbps
Channel(s) : 2 channels
Channel positions : Front: L R
Sampling rate : 48.0 KHz
Bit depth : 16 bits
Compression mode : Lossy
Stream size : 124 MiB (9%)
Alignment : Split accross interleaves
Interleave, duration : 96 ms (2.40 video frames)
Interleave, preload duration : 96 ms
Audio #2
ID : 2
Format : AC-3
Format/Info : Audio Coding 3
Mode extension : CM (complete main)
Format settings, Endianness : Big
Codec ID : 2000
Duration : 1h 30mn
Bit rate mode : Constant
Bit rate : 192 Kbps
Channel(s) : 2 channels
Channel positions : Front: L R
Sampling rate : 48.0 KHz
Bit depth : 16 bits
Compression mode : Lossy
Stream size : 124 MiB (9%)
Alignment : Split accross interleaves
Interleave, duration : 96 ms (2.40 video frames)
Interleave, preload duration : 96 ms

Скриншот c названием фильма

Скриншоты

Пример субтитров

1
00:00:34,524 --> 00:00:44,993
КАРТОШКА
2
00:01:38,052 --> 00:01:40,998
Ура! Свобода!
3
00:02:08,231 --> 00:02:11,311
Не понимаю, что мальчишки
находят в этой Алексе!
4
00:02:11,311 --> 00:02:14,032
Пустышка, и ничего больше!
5
00:02:14,082 --> 00:02:16,473
Мы тоже так сможем,
если захотим!
6
00:02:19,865 --> 00:02:21,379
Почему остановка?
7
00:02:24,044 --> 00:02:26,605
Какая-то "шишка"...
- Опять негритянский король?
8
00:02:26,605 --> 00:02:28,318
Да нет, тут одни белые.
9
00:02:41,509 --> 00:02:45,171
Ба, да это же Ноэль Карадин!
Мой друг детства!
10
00:02:45,264 --> 00:02:48,881
Ну да, а этот генерал -
мой младший братишка...
11
00:02:53,027 --> 00:02:55,358
Так, ладно - Альбер
займётся кока-колой,
12
00:02:55,358 --> 00:02:58,961
ты - сэндвичами, а ты заплатишь
за музыку. Согласны? - Окей!
13
00:02:59,241 --> 00:03:01,375
Сыграем в футбол?
- Нет, позже!
14
00:03:01,375 --> 00:03:05,906
Алекса, ты великолепна!
- Нет - организованная!
15
00:03:06,698 --> 00:03:09,099
Не забудь: сегодня моя очередь
провожать тебя в 4 часа.
16
00:03:09,099 --> 00:03:11,231
Я увёл кабриолет
у своего брата.
17
00:03:11,231 --> 00:03:13,544
Ну, это меняет дело!
18
00:03:14,645 --> 00:03:17,365
А ты... Как всегда, один?
19
00:03:20,877 --> 00:03:23,570
Поосторожней, мадемуазель
Алекса! - Да, ладно, ладно...
20
00:03:23,570 --> 00:03:26,685
Здорово, Алекса, что ты
придумала удрать с математики!
[cybertorrent.ru].t13594.torrent 
Торрент: Зарегистрирован [ 2020-03-29 19:03 ] · 00A80501495C458C5F58F5CD766E5B489B461A7E

Скачать .torrent

Скачать

14 KB

Статус: проверено
Скачан: 0 раз
Размер: 1,37 GB  ·  Тип торрента
terms.php
Профиль [ЛС]
Показать сообщения:    

Текущее время: 29-Май 20:20

Часовой пояс: UTC ± 0



Вы не можете начинать темы
Вы не можете отвечать на сообщения
Вы не можете редактировать свои сообщения
Вы не можете удалять свои сообщения
Вы не можете голосовать в опросах
Вы не можете прикреплять файлы к сообщениям
Вы можете скачивать файлы