Статистика раздачи
Размер:  1,37 GB   |    Зарегистрирован:  2 месяца 6 дней   |    Скачан:  0 раз
DL-List: Нет

Полного источника не было: Никогда

 
     
 
 

MAGNAT ®

Пол:
Мужской
Стаж:
1 год 2 месяца
Сообщений:
7949

Шевалье де Пардайан / Le chevalier de Pardaillan / Clash of Steel
Страна: Франция, Италия
Жанр: приключения, исторический, экранизация
Год выпуска: 1962
Продолжительность: 01:25:46
Перевод: Одноголосый закадровый Николай Золотухин
Субтитры: нет
Режиссер: Бернар Бордери / Bernard Borderie
В ролях: Жерар Баррэ, Джанна Мария Канале, Мишель Грелье, Кирк Моррис, Жан Топар, Робер Берри, Ги Делорм, Кэролайн Рэми, Жак Сейлер, Робер Дальбан, Рауль Бийре, Жак Иллинг, Клод Вега, Клод Вега, Анри Коган, Жиб Гроссак, Хелен Белланже, Антуан Бо, Франк Эстанж, Иван Шиффр, Франсуаза Жире, Рико Лопес
Описание: По третьей книге "Принцесса из рода Борджиа (Фоста)" из серии авантюрно-исторических романов французского писателя Мишеля Зевако о жизни и головокружительных приключениях членов дворянской семьи Пардайянов. XVI век, эпоха религиозных войн. Уже миновала кровавая Варфоломеевская ночь, но Генрих IV еще не добрался до трона. Морвер, наблюдавший за танцем Виолетты, актрисы из бродячей труппы Дельгодера, докладывет своему повелителю - герцогу де Гизу (одному из претендентов на французский трон и лидеру католической партии), что найдена та, которую искали. Герцог отдает приказ схватить Виолетту, но за девушку заступается один из зрителей - Шарль Ангулемский. Вместе с актерами-друзьями Виолетты он пытается противостоять людям де Гиза. Схватка завершается победой лишь благодаря вмешательству еще одного защитника Виолетты - храброго и ловкого гасконца шевалье Жана де Пардайана. Герцог Ангулемский открывает танцовщице тайну ее происхождения - она наследница богатого и знатного семейства д'Антрек, истребленного в Варфоломеевскую ночь. Принцесса Фоста Борджиа, невеста де Гиза, узнает, что тот имеет виды на Виолетту...
Качество видео: HDTVRip
Формат видео: AVI
Видео: XviD build 73, 720x400 (1.80:1), 25 fps, 2087 kbps avg, 0.29 bit/pixel
Аудио: AC3 Dolby Digital, 48000Hz, 2/0 (L,R) ch (mono), 192 kbps avg

MediaInfo

Шевалье де Пардайан (Le chevalier de Pardaillan) [by ale_x2008].avi
Format : AVI
Format/Info : Audio Video Interleave
File size : 1.37 GiB
Duration : 1 h 25 min
Overall bit rate : 2 290 kb/s
Movie name : Шевалье де Пардайан (Le chevalier de Pardaillan) [by ale_x2008]
Director : by ale_x2008
Writing application : VirtualDubMod 1.5.10.2 (build 2540/release)
Copyright : Edich2
Comment : RuTracker.org
Video
ID : 0
Format : MPEG-4 Visual
Format profile : Advanced Simple@L5
Format settings : BVOP1 / Custom Matrix
Format settings, BVOP : 1
Format settings, QPel : No
Format settings, GMC : No warppoints
Format settings, Matrix : Custom
Codec ID : XVID
Codec ID/Hint : XviD
Duration : 1 h 25 min
Bit rate : 2 088 kb/s
Width : 720 pixels
Height : 400 pixels
Display aspect ratio : 16:9
Frame rate : 25.000 FPS
Color space : YUV
Chroma subsampling : 4:2:0
Bit depth : 8 bits
Scan type : Progressive
Compression mode : Lossy
Bits/(Pixel*Frame) : 0.290
Stream size : 1.25 GiB (91%)
Writing library : XviD 73
Audio
ID : 1
Format : AC-3
Format/Info : Audio Coding 3
Codec ID : 2000
Duration : 1 h 25 min
Bit rate mode : Constant
Bit rate : 192 kb/s
Channel(s) : 2 channels
Channel positions : Front: L R
Sampling rate : 48.0 kHz
Frame rate : 31.250 FPS (1536 SPF)
Bit depth : 16 bits
Compression mode : Lossy
Stream size : 118 MiB (8%)
Alignment : Split accross interleaves
Interleave, duration : 40 ms (1.00 video frame)
Interleave, preload duratio : 500 ms
Service kind : Complete Main

Скриншоты


[cybertorrent.ru].t13602.torrent 
Торрент: Зарегистрирован [ 2020-03-29 19:12 ] · B8DFEBD38A872999F275DA75844F7707254E0DC7

Скачать .torrent

Скачать

14 KB

Статус: проверено
Скачан: 0 раз
Размер: 1,37 GB  ·  Тип торрента
terms.php
Профиль [ЛС]
Показать сообщения:    

Текущее время: 05-Июн 11:36

Часовой пояс: UTC ± 0



Вы не можете начинать темы
Вы не можете отвечать на сообщения
Вы не можете редактировать свои сообщения
Вы не можете удалять свои сообщения
Вы не можете голосовать в опросах
Вы не можете прикреплять файлы к сообщениям
Вы можете скачивать файлы