Статистика раздачи
Размер:  2,85 GB   |    Зарегистрирован:  2 месяца 6 дней   |    Скачан:  0 раз
DL-List: Нет

Полного источника не было: Никогда

 
     
 
 

MAGNAT ®

Пол:
Мужской
Стаж:
1 год 2 месяца
Сообщений:
7949

Сидящий по правую руку / Seduto Alla Sua Destra [Советская прокатная копия]- Страна: Италия
Жанр: биографическая драма
Год выпуска: 1968
Продолжительность: 01:23:46-Перевод: Профессиональный (дублированный) - Киностудия "Мосфильм"
Субтитры: нет-Режиссер: Валерио Дзурлини / Valerio Zurlini
В ролях: Вуди Строуд, Франко Читти, Жан Сервэ, Пьер Паоло Каппони, Стефен Форсайт, Лучано Катеначчи, Сальваторе Базиле, Джузеппе Транзокки, Сильвио Фиоре, Ренцо Росси-Описание: Морис Лалуби, лидер освободительного движения одной из стран Центральной Африки, схвачен и вместе с солдатом и вором-итальянцем Оресте посажен в тюрьму, где подвергается пыткам.
Основано на биографии Патриса Лумумбы.-Тип релиза: Screener
Контейнер: MPG
Видео: 720x576 (16:9) @ 1024x576, 25.000 fps, MPEG-2 Video, ~4521 Kbps, 0.436 bits/pixel
Аудио: Русский, 48.0 KHz, AC3, 2 ch, 256 Kbps

MediaInfo

General
Complete name : Сидящий по правую руку 1968 Dub Мосфильм.mpg
Format : MPEG-PS
File size : 2.85 GiB
Duration : 1 h 23 min
Overall bit rate mode : Variable
Overall bit rate : 4 874 kb/s
Video
ID : 224 (0xE0)
Format : MPEG Video
Format version : Version 2
Format profile : Main@Main
Format settings : CustomMatrix / BVOP
Format settings, BVOP : Yes
Format settings, Matrix : Custom
Format settings, GOP : M=3, N=12
Format settings, picture structure : Frame
Duration : 1 h 23 min
Bit rate mode : Variable
Bit rate : 4 521 kb/s
Maximum bit rate : 9 600 kb/s
Width : 720 pixels
Height : 576 pixels
Display aspect ratio : 16:9
Frame rate : 25.000 FPS
Standard : PAL
Color space : YUV
Chroma subsampling : 4:2:0
Bit depth : 8 bits
Scan type : Interlaced
Scan order : Top Field First
Compression mode : Lossy
Bits/(Pixel*Frame) : 0.436
Time code of first frame : 00:00:00:00
Time code source : Group of pictures header
Stream size : 2.65 GiB (93%)
Audio
ID : 189 (0xBD)-128 (0x80)
Format : AC-3
Format/Info : Audio Coding 3
Commercial name : Dolby Digital
Muxing mode : DVD-Video
Duration : 1 h 23 min
Bit rate mode : Constant
Bit rate : 256 kb/s
Channel(s) : 2 channels
Channel layout : L R
Sampling rate : 48.0 kHz
Frame rate : 31.250 FPS (1536 SPF)
Compression mode : Lossy
Stream size : 153 MiB (5%)
Service kind : Complete Main
[cybertorrent.ru].t13614.torrent 
Торрент: Зарегистрирован [ 2020-03-29 19:22 ] · 0972E7356C67317BC6E88C39EBD55D857135614A

Скачать .torrent

Скачать

15 KB

Статус: проверено
Скачан: 0 раз
Размер: 2,85 GB  ·  Тип торрента
terms.php
Профиль [ЛС]
Показать сообщения:    

Текущее время: 05-Июн 12:26

Часовой пояс: UTC ± 0



Вы не можете начинать темы
Вы не можете отвечать на сообщения
Вы не можете редактировать свои сообщения
Вы не можете удалять свои сообщения
Вы не можете голосовать в опросах
Вы не можете прикреплять файлы к сообщениям
Вы можете скачивать файлы